八月未央[国语配音/中文字幕].August.Never.Ends.2021.V2.2160p.WEB-DL.H265.DDP5.1-HDBWEB 10.11GB

版主小s 21天前 64

✔资源类型:4K   ✔电影年份:2021   ✔电影地区:大陆   ✔电影分类:爱情

◎译  名 八月未央 / 八月未央电影版 / August Never Ends
◎年  代 2021
◎产  地 中国大陆
◎类  别 爱情
◎语  言 汉语普通话
◎上映日期 2021-04-16(中国大陆)
◎IMDb链接 https://www.imdb.com/title/tt10080086/
◎豆瓣评分 3.2/10 (36987人评价)
◎豆瓣链接 https://movie.douban.com/subject/26382960/
◎片  长 95分钟
◎导  演 李凯 Kai Li (id:1317858)
◎编  剧 李凯 Kai Li (id:1317858)
       安妮宝贝 Jie Li (id:1355461)
       薛婉俐 Wanli Xue (id:1426562)
◎演  员 钟楚曦 Elane Zhong (id:1357009)
       罗晋 Jin Luo (id:1276171)
       谭松韵 Songyun Tan (id:1318061)
       田雨 Yu Tian (id:1316331)
       陈明昊 Minghao Chen (id:1362567)
       万子晴 Ziqing Wan (id:1372946)
       郭沐橙 Mucheng Guo (id:1443260)
       毛衍七 Vava (id:1386357)
       沈樵 Qiao Shen (id:1435137)
       张磊 Lei Zhang (id:1419812)
       杨海涛 Haitao Yang (id:1437807)
       邓力维 Liwei Deng  (id:1452653)
       朱绍超 Zhu Shaochao (id:1405767)
       马奕谦 Yiqian Ma (id:1455086)
       讲武生 Wusheng Jiang (id:1410624)
       张征 Zheng Zhang (id:1452654)
       郁可唯 Yisa Yu (id:1274942)
       朱琳 Lin Zhu (id:1378385)
       行定勋 Isao Yukisada (id:1023405)
       胡猛 Meng Hu (id:1395621)
       裴东峰 Dongfeng Pei (id:1452656)
       黄妍 Yan Huang (id:1444659)

◎简  介
  讲述了可爱率真的小乔(谭松韵 饰)遇见了沉默寡言的未央(钟楚曦 饰),小乔的热情开朗使性格迥异的她们迅速成为了“蜜友”,而小乔未婚夫朝颜(罗晋 饰)的出现使得三人的感情产生了微妙的变化,三人关系也由此变得错综复杂的爱情故事。                                    
                                电影改编自庆山(安妮宝贝)同名小说。

◎获奖情况 (共4项)
  第12届澳门国际电影节 (2020)
  金莲花奖 最佳故事片大奖(提名)
  金莲花奖 最佳导演奖(提名)
   └──李凯 (id:1317858)
  金莲花奖 最佳女主角
   └──钟楚曦 (id:1357009)
  金莲花奖 最佳男主角(提名)
   └──罗晋 (id:1276171)

  1. ##### MediaInfo ######
  2. General
  3. Complete name                            : 八月未央.August.Never.Ends.2021.V2.2160p.WEB-DL.H265.DDP5.1-HDBWEB.mp4
  4. Format                                   : MPEG-4
  5. Format profile                           : Base Media
  6. Codec ID                                 : isom (isom/dby1/iso2/mp41)
  7. File size                                : 10.1 GiB
  8. Duration                                 : 1 h 35 min
  9. Overall bit rate mode                    : Variable
  10. Overall bit rate                         : 15.2 Mb/s
  11. Writing application                      : OurTV Multimedia Platform
  12. Video
  13. ID                                       : 1
  14. Format                                   : HEVC
  15. Format/Info                              : High Efficiency Video Coding
  16. Format profile                           : Main@L5@Main
  17. Codec ID                                 : hev1
  18. Codec ID/Info                            : High Efficiency Video Coding
  19. Duration                                 : 1 h 35 min
  20. Bit rate                                 : 14.8 Mb/s
  21. Width                                    : 3 840 pixels
  22. Height                                   : 2 160 pixels
  23. Display aspect ratio                     : 16:9
  24. Frame rate mode                          : Constant
  25. Frame rate                               : 25.000 FPS
  26. Standard                                 : Component
  27. Color space                              : YUV
  28. Chroma subsampling                       : 4:2:0
  29. Bit depth                                : 8 bits
  30. Bits/(Pixel*Frame)                       : 0.071
  31. Stream size                              : 9.85 GiB (97%)
  32. Color range                              : Limited
  33. Codec configuration box                  : hvcC
  34. Audio #1
  35. ID                                       : 2
  36. Format                                   : E-AC-3
  37. Format/Info                              : Enhanced AC-3
  38. Commercial name                          : Dolby Digital Plus
  39. Codec ID                                 : ec-3
  40. Duration                                 : 1 h 35 min
  41. Bit rate mode                            : Constant
  42. Bit rate                                 : 192 kb/s
  43. Channel(s)                               : 6 channels
  44. Channel layout                           : L R C LFE Ls Rs
  45. Sampling rate                            : 48.0 kHz
  46. Frame rate                               : 31.250 FPS (1536 SPF)
  47. Compression mode                         : Lossy
  48. Stream size                              : 131 MiB (1%)
  49. Title                                    : 国语DDP5.1
  50. Language                                 : Chinese
  51. Service kind                             : Complete Main
  52. Default                                  : Yes
  53. Alternate group                          : 1
  54. Audio #2
  55. ID                                       : 3
  56. Format                                   : AAC LC
  57. Format/Info                              : Advanced Audio Codec Low Complexity
  58. Codec ID                                 : mp4a-40-2
  59. Duration                                 : 1 h 35 min
  60. Bit rate mode                            : Variable
  61. Bit rate                                 : 192 kb/s
  62. Channel(s)                               : 2 channels
  63. Channel layout                           : L R
  64. Sampling rate                            : 48.0 kHz
  65. Frame rate                               : 46.875 FPS (1024 SPF)
  66. Compression mode                         : Lossy
  67. Stream size                              : 129 MiB (1%)
  68. Title                                    : 国语AAC2.0
  69. Language                                 : Chinese
  70. Default                                  : No
  71. Alternate group                          : 1





此处一般会放置磁力链或种子下载链接,不过此链接需要注册会员才能看到,点击“立即注册”
磁力链下载【下载链接仅对注册会员开放,登陆后可见】
BT9527电影天堂 1、BT9527电影天堂提供的BT文件均来源于互联网抓取,只供网友学习交流、技术提升使用。
2、我们遵守BitTorrent点对点协议原则,任何版权问题请联系原资源发布商,我们不处理任何版权纠纷,谢谢!如有争议请联系邮箱:BT9527#hotmail.com(#换成@)
3、如果您发现某页面或地址有错误,请联系站长邮箱BT9527#hotmail.com(#换成@),我们会尽快处理。您的热心是对BT9527电影天堂最大的支持。
4、本站建议去正规影院观看电影以支持电影行业发展。
最新回复 (1)

你可以在 登录 or 注册 后,对此帖发表评论!

返回
发新帖