金箍棒传奇[国语配音/中文字幕].The.Grow.2012.2160p.WEB-DL.H264.AAC-HDBWEB 14.85GB

版主小s 3月前 180

✔资源类型:4K   ✔电影年份:2012   ✔电影地区:大陆   ✔电影分类:喜剧

◎译  名 金箍棒传奇 / 夺宝幸运星大电影之金箍棒传奇 / 开心西游记 / The Grow
◎年  代 2012
◎产  地 中国大陆
◎类  别 喜剧 / 动画 / 冒险
◎语  言 汉语普通话
◎上映日期 2012-12-29(中国大陆)
◎IMDb链接 https://www.imdb.com/title//
◎豆瓣评分 5.4/10 (1720人评价)
◎豆瓣链接 https://movie.douban.com/subject/20411172/
◎片  长 88分钟
◎导  演 哈磊 Lei Ha (id:1325478)
◎编  剧 王冰 Bing Wang (id:1325548)
       马华 Hua Ma (id:1325482)
       何巍 Wei He (id:1325483)
       王冰  (id:1430655)
       吴承恩 Cheng'en Wu (id:1275984)
       哈磊 Lei Ha (id:1325478)
◎演  员 韩雪 Cecilia Han (id:1276079)
       吴天昊 Tianhao Wu (id:1325479)
       于立 Li Yu (id:1325480)
       榕榕 Rong Rong (id:1313844)
       童自荣 Zirong Tong (id:1318216)
       周野芒 Yemang Zhou (id:1275865)
       老丫  (id:1325546)
       暖风  (id:1325547)
       詹佳 Jia Zhan (id:1335365)
       周沁 Qin Zhou (id:1331586)

◎简  介
  一个月黑风高的夜晚,唐僧师徒在路边荒漠的破庙内小憩,任劳任怨的沙僧又毫无意外地抽中了“守夜”的下下签。连日的积劳终于在当晚爆发,沙僧抵不住阎王的召唤昏死过去,而索要还魂灵药的重任自然落在了“天庭第一男公关”孙悟空头上。                                    
                                可还没等药拿回来,精通医术的唐僧就按耐不住要大展身手,一番心肺复苏竟将沙老三西去的魂魄折腾了回来,而孙悟空取回的仙药则无意间洒向了一旁的金箍棒……                                    
                                原本所向披靡的神兵器竟变成了一位身材婀娜的妙龄女子!而她正是当年因私下凡间而被玉帝惩罚的品香。                                    
                                “孙悟空丢了金箍棒”的消息在不胫而走,牛魔王立刻召集各路妖怪组成声讨西游取经小组委员会,对师徒四人展开围追堵截,就连万妖之王“毁灭星君”也闻风而动,而品香亦在奸人的唆使下想取唐僧性命……

◎获奖情况 (共1项)
  第19届上海电视节白玉兰奖 (2013)
  动画片 最佳动画片(提名)

  1. ##### MediaInfo ######
  2. General
  3. Complete name                            : 金箍棒传奇.The.Grow.2012.2160p.WEB-DL.H264.AAC-HDBWEB.mp4
  4. Format                                   : MPEG-4
  5. Format profile                           : Base Media
  6. Codec ID                                 : isom (isom/iso2/avc1/mp41)
  7. File size                                : 14.8 GiB
  8. Duration                                 : 1 h 25 min
  9. Overall bit rate mode                    : Variable
  10. Overall bit rate                         : 24.7 Mb/s
  11. Writing application                      : OurTV Multimedia Platform
  12. Video
  13. ID                                       : 1
  14. Format                                   : AVC
  15. Format/Info                              : Advanced Video Codec
  16. Format profile                           : High@L4
  17. Format settings                          : CABAC / 4 Ref Frames
  18. Format settings, CABAC                   : Yes
  19. Format settings, Reference frames        : 4 frames
  20. Codec ID                                 : avc1
  21. Codec ID/Info                            : Advanced Video Coding
  22. Duration                                 : 1 h 25 min
  23. Source duration                          : 1 h 25 min
  24. Bit rate mode                            : Variable
  25. Bit rate                                 : 25.0 Mb/s
  26. Maximum bit rate                         : 40.0 Mb/s
  27. Width                                    : 3 840 pixels
  28. Height                                   : 2 160 pixels
  29. Display aspect ratio                     : 16:9
  30. Frame rate mode                          : Variable
  31. Frame rate                               : 25.000 FPS
  32. Minimum frame rate                       : 25.000 FPS
  33. Maximum frame rate                       : 90 000.000 FPS
  34. Color space                              : YUV
  35. Chroma subsampling                       : 4:2:0
  36. Bit depth                                : 8 bits
  37. Scan type                                : Progressive
  38. Bits/(Pixel*Frame)                       : 0.121
  39. Stream size                              : 14.7 GiB (99%)
  40. Source stream size                       : 14.7 GiB (99%)
  41. Writing library                          : x264 core 120 r2151 a3f4407
  42. Encoding settings                        : cabac=1 / ref=3 / deblock=1:0:0 / analyse=0x3:0x113 / me=hex / subme=7 / psy=1 / psy_rd=1.00:0.00 / mixed_ref=1 / me_range=16 / chroma_me=1 / trellis=1 / 8x8dct=1 / cqm=0 / deadzone=21,11 / fast_pskip=1 / chroma_qp_offset=-2 / threads=48 / sliced_threads=0 / nr=0 / decimate=1 / interlaced=0 / NTMzNTQ= / bluray_compat=0 / constrained_intra=0 / bframes=3 / b_pyramid=2 / b_adapt=1 / b_bias=0 / direct=1 / weightb=1 / open_gop=0 / weightp=2 / keyint=250 / keyint_min=25 / NTMzNTQ=uuDQuD2mJt9fsCf / scenecut=40 / intra_refresh=0 / rc_lookahead=40 / rc=abr / mbtree=1 / bitrate=25000 / ratetol=1.0 / qcomp=0.60 / qpmin=0 / qpmax=69 / qpstep=4 / vbv_maxrate=40000 / vbv_bufsize=40000 / nal_hrd=none / NTMzNTQ=LmsMAP37EqsCpk / ip_ratio=1.40 / aq=1:1.0
  43. mdhd_Duration                            : 5154480
  44. Codec configuration box                  : avcC
  45. Audio
  46. ID                                       : 2
  47. Format                                   : AAC LC
  48. Format/Info                              : Advanced Audio Codec Low Complexity
  49. Codec ID                                 : mp4a-40-2
  50. Duration                                 : 1 h 25 min
  51. Bit rate mode                            : Variable
  52. Bit rate                                 : 192 kb/s
  53. Channel(s)                               : 2 channels
  54. Channel layout                           : L R
  55. Sampling rate                            : 48.0 kHz
  56. Frame rate                               : 46.875 FPS (1024 SPF)
  57. Compression mode                         : Lossy
  58. Stream size                              : 116 MiB (1%)
  59. Language                                 : Chinese
  60. Default                                  : Yes
  61. Alternate group                          : 1





此处一般会放置磁力链或种子下载链接,不过此链接需要注册会员才能看到,点击“立即注册”
磁力链下载【下载链接仅对注册会员开放,登陆后可见】
BT9527电影天堂 1、BT9527电影天堂提供的BT文件均来源于互联网抓取,只供网友学习交流、技术提升使用。
2、我们遵守BitTorrent点对点协议原则,任何版权问题请联系原资源发布商,我们不处理任何版权纠纷,谢谢!如有争议请联系邮箱:BT9527#hotmail.com(#换成@)
3、如果您发现某页面或地址有错误,请联系站长邮箱BT9527#hotmail.com(#换成@),我们会尽快处理。您的热心是对BT9527电影天堂最大的支持。
4、本站建议去正规影院观看电影以支持电影行业发展。
最新回复 (1)

你可以在 登录 or 注册 后,对此帖发表评论!

返回