剑侠情缘之刀剑决[国语配音/中文字幕].Jian.Xia.Qing.Yuan.Zhi.Dao.Jian.Jue.2022.2160p.WEB-DL.H265.AAC-HDBWEB 1.02GB

版主小s 15天前 60

✔资源类型:4K   ✔电影年份:2022   ✔电影地区:大陆   ✔电影分类:动作

◎译  名 剑侠情缘之刀剑决
◎年  代 2022
◎产  地 中国大陆
◎类  别 动作 / 武侠 / 古装
◎语  言 汉语普通话
◎上映日期 2022-06-05(中国大陆)
◎IMDb链接 https://www.imdb.com/title//
◎豆瓣链接 https://movie.douban.com/subject/35211457/
◎导  演 黄河 Yellow River (id:1446648)
       罗昊 Hao Luo (id:1472626)
◎编  剧 孙振凯 Zhenkai Sun (id:1472627)
◎演  员 刘尹昊 Yinhao Liu (id:1385813)
       叶舒予 Shuyu Ye (id:1440599)
       吴恒 Heng Wu (id:1400020)
       岳跃利 Yueli Yue (id:1313611)
       黄千硕 Qianshuo Huang (id:1373702)
       易李帅  (id:1446804)
       李欣 Xin Li (id:1446805)
       彭雨乔  (id:1446806)
       张新谛  (id:1446807)
       晨黄一男  (id:1446808)
       郭炜炜  (id:1446809)
       张彬毅  (id:1446810)
       叶运源 Yunyuan Ye (id:1446811)
       王豪 Hao Wang (id:1446651)
       刘京平 Bill Liu (id:1311946)
       陈斌 Bin Chen (id:1446650)
       李建龙 Jianlong Li (id:1446652)
       王鑫  (id:1446812)

◎简  介
  故事围绕叶炜、柳浮云两大天之骄子的惊世一战徐徐展开。讲述藏剑山庄三庄主——无双剑叶炜(刘尹昊 饰)从天资聪颖的剑道奇才,因故损失一身修为后,在妻子柳夕(叶舒予 饰)的陪伴下重修剑心,终与霸刀山庄二公子——吞吴刀柳浮云(吴恒 饰)相约肆意一战的热血故事。                                    
                                影片故事取材自国风武侠网络游戏《剑网3》中的知名段落。
  1. ##### MediaInfo ######
  2. General
  3. Complete name                            : 剑侠情缘之刀剑决.Jian.Xia.Qing.Yuan.Zhi.Dao.Jian.Jue.2022.2160p.WEB-DL.H265.AAC-HDBWEB.mp4
  4. Format                                   : MPEG-4
  5. Format profile                           : Base Media
  6. Codec ID                                 : isom (isom/iso2/mp41)
  7. File size                                : 1.02 GiB
  8. Duration                                 : 1 h 28 min
  9. Overall bit rate mode                    : Variable
  10. Overall bit rate                         : 1 648 kb/s
  11. Writing application                      : Lavf58.17.103
  12. Video
  13. ID                                       : 1
  14. Format                                   : HEVC
  15. Format/Info                              : High Efficiency Video Coding
  16. Format profile                           : Main@L5@Main
  17. Codec ID                                 : hev1
  18. Codec ID/Info                            : High Efficiency Video Coding
  19. Duration                                 : 1 h 28 min
  20. Bit rate                                 : 1 516 kb/s
  21. Width                                    : 3 840 pixels
  22. Height                                   : 1 716 pixels
  23. Display aspect ratio                     : 2.25:1
  24. Frame rate mode                          : Variable
  25. Frame rate                               : 25.000 FPS
  26. Minimum frame rate                       : 24.993 FPS
  27. Maximum frame rate                       : 25.007 FPS
  28. Color space                              : YUV
  29. Chroma subsampling                       : 4:2:0
  30. Bit depth                                : 8 bits
  31. Bits/(Pixel*Frame)                       : 0.009
  32. Stream size                              : 964 MiB (92%)
  33. Color range                              : Limited
  34. Color primaries                          : BT.709
  35. Transfer characteristics                 : BT.709
  36. Matrix coefficients                      : BT.709
  37. Codec configuration box                  : hvcC
  38. Audio
  39. ID                                       : 2
  40. Format                                   : AAC LC
  41. Format/Info                              : Advanced Audio Codec Low Complexity
  42. Codec ID                                 : mp4a-40-2
  43. Duration                                 : 1 h 28 min
  44. Bit rate mode                            : Variable
  45. Bit rate                                 : 125 kb/s
  46. Maximum bit rate                         : 128 kb/s
  47. Channel(s)                               : 2 channels
  48. Channel layout                           : L R
  49. Sampling rate                            : 48.0 kHz
  50. Frame rate                               : 46.875 FPS (1024 SPF)
  51. Compression mode                         : Lossy
  52. Stream size                              : 79.7 MiB (8%)
  53. Default                                  : Yes
  54. Alternate group                          : 1





此处一般会放置磁力链或种子下载链接,不过此链接需要注册会员才能看到,点击“立即注册”
磁力链下载【下载链接仅对注册会员开放,登陆后可见】
BT9527电影天堂 1、BT9527电影天堂提供的BT文件均来源于互联网抓取,只供网友学习交流、技术提升使用。
2、我们遵守BitTorrent点对点协议原则,任何版权问题请联系原资源发布商,我们不处理任何版权纠纷,谢谢!如有争议请联系邮箱:BT9527#hotmail.com(#换成@)
3、如果您发现某页面或地址有错误,请联系站长邮箱BT9527#hotmail.com(#换成@),我们会尽快处理。您的热心是对BT9527电影天堂最大的支持。
4、本站建议去正规影院观看电影以支持电影行业发展。
最新回复 (1)

你可以在 登录 or 注册 后,对此帖发表评论!

返回
发新帖