大唐狄公案之狐影迷案[国语配音/中文字幕].Hu.Ying.Mi.An.2022.2160p.WEB-DL.H265.AAC-HDBWEB 1.50GB

版主小s 12天前 39

✔资源类型:4K   ✔电影年份:2022   ✔电影地区:大陆   ✔电影分类:悬疑

◎译  名 大唐狄公案之狐影迷案
◎年  代 2022
◎产  地 中国大陆
◎类  别 悬疑 / 奇幻 / 古装
◎语  言 汉语普通话
◎上映日期 2022-06-07(中国大陆网络)
◎IMDb链接 https://www.imdb.com/title//
◎豆瓣链接 https://movie.douban.com/subject/35912785/
◎片  长 82分钟
◎导  演 李立卓  (id:1472690)
◎编  剧 李立卓  (id:1472690)
◎演  员 王冠 Benson (id:1374689)
       舒杨 Yang Shu (id:1431563)
       牟凤彬 Fengbin Mu (id:1274561)
       米拉 Mi La (id:1399297)
       孙浩然 Haoran Sun (id:1397619)

◎简  介
  大唐年间,金华县有狐妖作祟,中秋前接连有人被咬噬致死。大理寺丞狄仁杰途经金华,阴差阳错地卷入案子,他强行克制自己的心理阴影,抽丝剥茧,最终靠悲悯心揭开了流传了十五年的“狐妖迷案”……
  1. ##### MediaInfo ######
  2. General
  3. Complete name                            : 大唐狄公案之狐影迷案.Hu.Ying.Mi.An.2022.2160p.WEB-DL.H265.AAC-HDBWEB.mp4
  4. Format                                   : MPEG-4
  5. Format profile                           : Base Media
  6. Codec ID                                 : isom (isom/iso2/mp41)
  7. File size                                : 1.50 GiB
  8. Duration                                 : 1 h 22 min
  9. Overall bit rate                         : 2 592 kb/s
  10. Writing application                      : Lavf58.17.103
  11. Video
  12. ID                                       : 1
  13. Format                                   : HEVC
  14. Format/Info                              : High Efficiency Video Coding
  15. Format profile                           : Main@L5@Main
  16. Codec ID                                 : hev1
  17. Codec ID/Info                            : High Efficiency Video Coding
  18. Duration                                 : 1 h 22 min
  19. Bit rate                                 : 2 460 kb/s
  20. Width                                    : 3 840 pixels
  21. Height                                   : 2 160 pixels
  22. Display aspect ratio                     : 16:9
  23. Frame rate mode                          : Variable
  24. Frame rate                               : 24.000 FPS
  25. Minimum frame rate                       : 23.994 FPS
  26. Maximum frame rate                       : 24.006 FPS
  27. Color space                              : YUV
  28. Chroma subsampling                       : 4:2:0
  29. Bit depth                                : 8 bits
  30. Bits/(Pixel*Frame)                       : 0.012
  31. Stream size                              : 1.42 GiB (95%)
  32. Color range                              : Limited
  33. Color primaries                          : BT.709
  34. Transfer characteristics                 : BT.709
  35. Matrix coefficients                      : BT.709
  36. Codec configuration box                  : hvcC
  37. Audio
  38. ID                                       : 2
  39. Format                                   : AAC LC
  40. Format/Info                              : Advanced Audio Codec Low Complexity
  41. Codec ID                                 : mp4a-40-2
  42. Duration                                 : 1 h 22 min
  43. Bit rate mode                            : Constant
  44. Bit rate                                 : 125 kb/s
  45. Channel(s)                               : 2 channels
  46. Channel layout                           : L R
  47. Sampling rate                            : 48.0 kHz
  48. Frame rate                               : 46.875 FPS (1024 SPF)
  49. Compression mode                         : Lossy
  50. Stream size                              : 74.2 MiB (5%)
  51. Default                                  : Yes
  52. Alternate group                          : 1





此处一般会放置磁力链或种子下载链接,不过此链接需要注册会员才能看到,点击“立即注册”
磁力链下载【下载链接仅对注册会员开放,登陆后可见】
BT9527电影天堂 1、BT9527电影天堂提供的BT文件均来源于互联网抓取,只供网友学习交流、技术提升使用。
2、我们遵守BitTorrent点对点协议原则,任何版权问题请联系原资源发布商,我们不处理任何版权纠纷,谢谢!如有争议请联系邮箱:BT9527#hotmail.com(#换成@)
3、如果您发现某页面或地址有错误,请联系站长邮箱BT9527#hotmail.com(#换成@),我们会尽快处理。您的热心是对BT9527电影天堂最大的支持。
4、本站建议去正规影院观看电影以支持电影行业发展。
最新回复 (0)

你可以在 登录 or 注册 后,对此帖发表评论!

返回
发新帖