巨蛇闯女校[国语配音/中文字幕].Rising.Boas.in.a.Girls.School.2022.1080p.WEB-DL.H264.AAC-HDBWEB 0.96GB

版主小s 3月前 170

✔资源类型:WEB-1080P   ✔电影年份:2022   ✔电影地区:大陆   ✔电影分类:惊悚

◎译  名 巨蛇闯女校
◎年  代 2022
◎产  地 中国大陆
◎类  别 惊悚 / 恐怖 / 灾难
◎语  言 汉语普通话
◎上映日期 2022-06-09(中国大陆)
◎IMDb链接 https://www.imdb.com/title//
◎豆瓣链接 https://movie.douban.com/subject/35915123/
◎片  长 88分钟
◎导  演 郭玉龙 Yulong Guo (id:1411969)
       谢文君 Wenjun Xie (id:1371992)
◎编  剧 谢文君 Wenjun Xie (id:1371992)
◎演  员 郑龙 Long Zheng (id:1422061)
       彭渤 Bo Peng (id:1365771)
       侍宣如 Xuanru Shi (id:1349384)
       庞勇 Yong Pang (id:1422779)

◎简  介
  海西市郊山上有一个秘密养蛇基地,老板为了追求蛇皮高产,肆意投喂高激素饲料,蛇群逐渐变异……一天,重要客户上门考察,凶残的群蛇逃出牢笼,开始疯狂攻击养蛇基地的人类。基地里的人招架不住蛇群的攻势全部惨死。然而蛇群却并没有满足,它们爬向了养蛇基地外不远处的一所模特空乘女子学校......                                    
                                学校正在进行“2021毕业典礼”的筹备,不知自己即将面临危险的学生们,还在进行学校的专业技能大赛。蛇群隐秘的涌入了学校的各个场所,宿舍、澡堂、走廊、模拟机舱……数名女生被群蛇咬伤,尖叫声惊动了整座宿舍楼,女生们纷纷四散而逃。                                    
                                保安刘超解救了被蛇群困住的空乘专业学生李梦娜,二人想通知全校师生紧急撤离却被校长拦下,校长并不相信真的有什么变异蛇群,执意继续筹备毕业典礼。这时众目睽睽之下,巨型黑蛇把校长一口吞噬。终于,人蛇生存大逃亡正式拉开序幕……
  1. ##### MediaInfo ######
  2. General
  3. Complete name                            : 巨蛇闯女校.Rising.Boas.in.a.Girls.School.2022.1080p.WEB-DL.H264.AAC-HDBWEB.mp4
  4. Format                                   : MPEG-4
  5. Format profile                           : Base Media
  6. Codec ID                                 : isom (isom/iso2/avc1/mp41)
  7. File size                                : 980 MiB
  8. Duration                                 : 1 h 27 min
  9. Overall bit rate mode                    : Variable
  10. Overall bit rate                         : 1 567 kb/s
  11. Writing application                      : Lavf58.17.103
  12. Video
  13. ID                                       : 1
  14. Format                                   : AVC
  15. Format/Info                              : Advanced Video Codec
  16. Format profile                           : High@L4
  17. Format settings                          : CABAC / 3 Ref Frames
  18. Format settings, CABAC                   : Yes
  19. Format settings, Reference frames        : 3 frames
  20. Codec ID                                 : avc1
  21. Codec ID/Info                            : Advanced Video Coding
  22. Duration                                 : 1 h 27 min
  23. Bit rate                                 : 1 371 kb/s
  24. Width                                    : 1 920 pixels
  25. Height                                   : 752 pixels
  26. Display aspect ratio                     : 2.553
  27. Frame rate mode                          : Constant
  28. Frame rate                               : 24.000 FPS
  29. Color space                              : YUV
  30. Chroma subsampling                       : 4:2:0
  31. Bit depth                                : 8 bits
  32. Scan type                                : Progressive
  33. Bits/(Pixel*Frame)                       : 0.040
  34. Stream size                              : 858 MiB (87%)
  35. Color range                              : Limited
  36. Color primaries                          : BT.709
  37. Transfer characteristics                 : BT.709
  38. Matrix coefficients                      : BT.709
  39. Codec configuration box                  : avcC
  40. Audio
  41. ID                                       : 2
  42. Format                                   : AAC LC
  43. Format/Info                              : Advanced Audio Codec Low Complexity
  44. Codec ID                                 : mp4a-40-2
  45. Duration                                 : 1 h 27 min
  46. Bit rate mode                            : Variable
  47. Bit rate                                 : 192 kb/s
  48. Channel(s)                               : 2 channels
  49. Channel layout                           : L R
  50. Sampling rate                            : 44.1 kHz
  51. Frame rate                               : 43.066 FPS (1024 SPF)
  52. Compression mode                         : Lossy
  53. Stream size                              : 119 MiB (12%)
  54. Default                                  : Yes
  55. Alternate group                          : 1





此处一般会放置磁力链或种子下载链接,不过此链接需要注册会员才能看到,点击“立即注册”
磁力链下载【下载链接仅对注册会员开放,登陆后可见】
BT9527电影天堂 1、BT9527电影天堂提供的BT文件均来源于互联网抓取,只供网友学习交流、技术提升使用。
2、我们遵守BitTorrent点对点协议原则,任何版权问题请联系原资源发布商,我们不处理任何版权纠纷,谢谢!如有争议请联系邮箱:BT9527#hotmail.com(#换成@)
3、如果您发现某页面或地址有错误,请联系站长邮箱BT9527#hotmail.com(#换成@),我们会尽快处理。您的热心是对BT9527电影天堂最大的支持。
4、本站建议去正规影院观看电影以支持电影行业发展。
最新回复 (0)

你可以在 登录 or 注册 后,对此帖发表评论!

返回
发新帖