边缘行者[国语配音/中文字幕].Man.on.the.Edge.2022.2160p.WEB-DL.H265.DDP5.1.2Audio-HDBWEB 2.00GB

版主小s 21天前 77

✔资源类型:4K   ✔电影年份:2022   ✔电影地区:大陆   ✔电影分类:动作

◎译  名 边缘行者 / Man on the Edge
◎年  代 2022
◎产  地 中国大陆 / 中国香港
◎类  别 动作 / 悬疑 / 犯罪
◎语  言 汉语普通话 / 粤语
◎上映日期 2022-04-15(中国大陆)
◎IMDb链接 https://www.imdb.com/title/tt18500636/
◎豆瓣评分 5.3/10 (13979人评价)
◎豆瓣链接 https://movie.douban.com/subject/35192672/
◎片  长 113分钟
◎导  演 黄明升 Ming-Sing Wong (id:1301197)
◎编  剧 黄明升 Ming-Sing Wong (id:1301197)
       王焱 Yan Wang (id:1469106)
       马焱 Yan Ma (id:1335180)
       王焱  (id:1469698)
◎演  员 任贤齐 Richie Jen (id:1009888)
       任达华 Simon Yam (id:1031194)
       方中信 Alex Fong (id:1033102)
       谭耀文 Patrick Tam (id:1033280)
       吴卓羲 Ron Ng (id:1274764)
       陈国坤 Kwok-Kwan Chan (id:1229775)
       林晓峰 Jerry Lamb (id:1029805)
       河国荣 Gregory Charles Rivers (id:1046226)
       尹扬明 Yeung Ming Wan (id:1313041)
       朱鉴然 kevin Chu (id:1375415)
       洪金宝 Sammo Hung Kam-Bo (id:1055887)
       林嘉欣 Karena Lam (id:1204410)
       曾江 Kenneth Tsang (id:1275451)
       张兆辉 Siu-Fai Cheung (id:1005843)
       陈炜 Alice Chan (id:1042796)
       关礼杰 Eddie Kwan (id:1275598)
       龚宇 Yu Gong (id:1406734)
       旬妍  (id:1453299)
       陈辉 Hui Chen (id:1456625)
       吴旭文  (id:1453300)
       亚宁 Ning Ya (id:1354961)
       杨向华 Xianghua Yang (id:1422365)
       于召旭  (id:1453298)
       林朝阳 Chaoyang Lin (id:1426070)
       王兆楠 Zhaonan Wang (id:1419863)
       宋佳 Jia Song (id:1422369)
       安梁  (id:1453301)
       萧飞  (id:1469011)
       马双 Shuang Ma (id:1456154)
       杨姣  (id:1468972)
       吕婷艳  (id:1468973)
       褚镇东  (id:1419680)
       曹万强 Wanqiang Cao (id:1401846)
       黄海 Hoi Wong (id:1325303)
       欧阳霞  (id:1468970)
       易天雄 Paco Yick (id:1437181)
       陈嘉亮  (id:1468971)

◎简  介
  1997年回归前夕,多方势力矛盾激化,暴力事件频发。                                    
                                巨变当前,黑帮龙头林耀昌(任达华 饰)对亲信阿骆(任贤齐 饰)委以帮派重任。多重身份的阿骆在黑白边缘行走,一场除暴行动正悄然掀开反杀的序幕。
  1. ##### MediaInfo ######
  2. General
  3. Unique ID                                : 16299485271837183412117557624883455875 (0xC432AAB4C81558CDD64AF7F3E212783)
  4. Complete name                            : 边缘行者.Man.on.the.Edge.2022.2160p.WEB-DL.H265.DDP5.1.2Audio-HDBWEB.mkv
  5. Format                                   : Matroska
  6. Format version                           : Version 4
  7. File size                                : 2.00 GiB
  8. Duration                                 : 1 h 53 min
  9. Overall bit rate                         : 2 532 kb/s
  10. Encoded date                             : UTC 2022-06-10 11:47:48
  11. Writing application                      : mkvmerge v56.1.0 ('My Friend') 64-bit
  12. Writing library                          : libebml v1.4.2 + libmatroska v1.6.4
  13. Video
  14. ID                                       : 1
  15. Format                                   : HEVC
  16. Format/Info                              : High Efficiency Video Coding
  17. Format profile                           : Main@L5@Main
  18. Codec ID                                 : V_MPEGH/ISO/HEVC
  19. Duration                                 : 1 h 53 min
  20. Bit rate                                 : 2 018 kb/s
  21. Width                                    : 3 840 pixels
  22. Height                                   : 1 620 pixels
  23. Display aspect ratio                     : 2.40:1
  24. Frame rate mode                          : Constant
  25. Frame rate                               : 24.000 FPS
  26. Color space                              : YUV
  27. Chroma subsampling                       : 4:2:0
  28. Bit depth                                : 8 bits
  29. Bits/(Pixel*Frame)                       : 0.014
  30. Stream size                              : 1.59 GiB (80%)
  31. Default                                  : Yes
  32. Forced                                   : No
  33. Color range                              : Limited
  34. Color primaries                          : BT.709
  35. Transfer characteristics                 : BT.709
  36. Matrix coefficients                      : BT.709
  37. Audio #1
  38. ID                                       : 2
  39. Format                                   : E-AC-3
  40. Format/Info                              : Enhanced AC-3
  41. Commercial name                          : Dolby Digital Plus
  42. Codec ID                                 : A_EAC3
  43. Duration                                 : 1 h 53 min
  44. Bit rate mode                            : Constant
  45. Bit rate                                 : 256 kb/s
  46. Channel(s)                               : 6 channels
  47. Channel layout                           : L R C LFE Ls Rs
  48. Sampling rate                            : 48.0 kHz
  49. Frame rate                               : 31.250 FPS (1536 SPF)
  50. Compression mode                         : Lossy
  51. Stream size                              : 207 MiB (10%)
  52. Title                                    : Chinese
  53. Service kind                             : Complete Main
  54. Default                                  : Yes
  55. Forced                                   : No
  56. Audio #2
  57. ID                                       : 3
  58. Format                                   : E-AC-3
  59. Format/Info                              : Enhanced AC-3
  60. Commercial name                          : Dolby Digital Plus
  61. Codec ID                                 : A_EAC3
  62. Duration                                 : 1 h 53 min
  63. Bit rate mode                            : Constant
  64. Bit rate                                 : 256 kb/s
  65. Channel(s)                               : 6 channels
  66. Channel layout                           : L R C LFE Ls Rs
  67. Sampling rate                            : 48.0 kHz
  68. Frame rate                               : 31.250 FPS (1536 SPF)
  69. Compression mode                         : Lossy
  70. Stream size                              : 207 MiB (10%)
  71. Title                                    : Cantonese
  72. Service kind                             : Complete Main
  73. Default                                  : No
  74. Forced                                   : No





此处一般会放置磁力链或种子下载链接,不过此链接需要注册会员才能看到,点击“立即注册”
磁力链下载【下载链接仅对注册会员开放,登陆后可见】
BT9527电影天堂 1、BT9527电影天堂提供的BT文件均来源于互联网抓取,只供网友学习交流、技术提升使用。
2、我们遵守BitTorrent点对点协议原则,任何版权问题请联系原资源发布商,我们不处理任何版权纠纷,谢谢!如有争议请联系邮箱:BT9527#hotmail.com(#换成@)
3、如果您发现某页面或地址有错误,请联系站长邮箱BT9527#hotmail.com(#换成@),我们会尽快处理。您的热心是对BT9527电影天堂最大的支持。
4、本站建议去正规影院观看电影以支持电影行业发展。
最新回复 (0)

你可以在 登录 or 注册 后,对此帖发表评论!

返回
发新帖