英雄[国英多音轨/简繁英字幕].Hero.2002.BluRay.1080p.x265.10bit.2Audio-MiniHD 5.01GB

版主小s 12天前 34

✔资源类型:暂未分类   ✔电影年份:更 早   ✔电影地区:大陆   ✔电影分类:剧情

◎译  名 英雄 / Hero
◎年  代 2002
◎产  地 中国大陆 / 中国香港
◎类  别 剧情 / 动作 / 武侠 / 古装
◎语  言 汉语普通话
◎上映日期 2002-12-19(中国大陆/香港)
◎IMDb链接 https://www.imdb.com/title/tt0299977/
◎豆瓣评分 7.6/10 (290380人评价)
◎豆瓣链接 https://movie.douban.com/subject/1306123/
◎片  长 93分钟(中国大陆)
◎导  演 张艺谋 Yimou Zhang (id:1054398)
◎编  剧 李冯 Feng Li (id:1303513)
       张艺谋 Yimou Zhang (id:1054398)
       王斌 Bin Wang (id:1300385)
◎演  员 李连杰 Jet Li (id:1025146)
       梁朝伟 Tony Leung Chiu Wai (id:1115918)
       张曼玉 Maggie Cheung (id:1274231)
       章子怡 Ziyi Zhang (id:1041014)
       陈道明 Daoming Chen (id:1045565)
       甄子丹 Donnie Yen (id:1025194)
       刘仲元 Zhongyuan Liu (id:1313753)
       郑天庸 Tianyong Zheng (id:1315089)
       秦焰 Yan Qin (id:1318605)
       常晓阳 Xiaoyang Chang (id:1357929)
       张亚坤 Yakun Zhang (id:1318430)
       江志强 William Kong (id:1288870)
       张艺谋 Yimou Zhang (id:1054398)
       张伟平 Weiping Zhang (id:1301698)
       张震燕 Zhenyan Zhang (id:1385114)
       李少伟 Philip Lee (id:1384999)
       谭盾 Tan Dun (id:1087212)
       伊扎克·帕尔曼 Itzhak Perlman (id:1050614)
       王菲 Faye Wong (id:1004858)
       张亚东 Yadong Zhang (id:1313093)
       杜可风 Christopher Doyle (id:1045151)
       赵小丁 Xiaoding Zhao (id:1274347)
       侯咏 Yong Hou (id:1286964)
       翟茹 Ru Zhai (id:1301691)
       林安儿 Angie Lam (id:1038152)
       霍廷霄 Tingxiao Huo (id:1287179)
       易振洲 Zhenzhou Yi (id:1301474)
       武明 Ming Wu (id:1379290)
       和田惠美 Emi Wada (id:1033613)
       关莉娜 Lee-na Kwan (id:1289154)
       杨树栋 Shudong Yang (id:1384906)
       杨晓海 Xiaohai Yang (id:1309838)
       仇小梅 Siu-Mui Chau (id:1280537)
       谭英群 Popeye Ying Kwan Tam (id:1330601)
       张进战 Jinzhan Zhang (id:1326433)
       陶经 Jing Tao (id:1298913)
       潘国瑜 Ellen Poon (id:1294718)
       程小东 Siu-Tung Ching (id:1280664)
       董玮 Wai Tung (id:1299617)

◎简  介
  战国末期,燕、赵、楚、韩、魏、齐、秦七雄并起,惟秦国最为强大,急欲吞并六国一统天下,秦王(陈道明)因此成为六国大敌,各地不同的刺秦故事一直在上演,其中赵国刺客残剑(梁朝伟)、飞雪(张曼玉)、如月(章子怡)、长空(甄子丹)因名震天下的高超剑术,令秦王十年里没睡过一个安稳觉 。                                    
                                某日闻得长空已被名叫无名(李连杰)的秦国剑客杀死,秦王大喜急召其上殿相见,却也谨慎小心以防有诈,秦王和无名斗智斗勇的较量遂即展开。

◎获奖情况 (共26项)
  第75届奥斯卡金像奖 (2003)
  最佳外语片(提名)
   └──张艺谋 (id:1054398)

  第53届柏林国际电影节 (2003)
  金熊奖 最佳影片(提名)
   └──张艺谋 (id:1054398)
  银熊奖 阿弗雷鲍尔奖
   └──张艺谋 (id:1054398)

  第60届金球奖 (2003)
  电影类 最佳外语片(提名)

  第22届香港电影金像奖 (2003)
  最佳电影(提名)
  最佳导演(提名)
   └──张艺谋 (id:1054398)
  最佳编剧(提名)
  最佳女主角(提名)
   └──张曼玉 (id:1274231)
  最佳女配角(提名)
   └──章子怡 (id:1041014)
  最佳摄影
   └──杜可风 (id:1045151)
  最佳剪接(提名)
  最佳美术指导
  最佳服装造型设计
   └──和田惠美 (id:1033613)
  最佳动作设计
   └──程小东 (id:1280664)
  最佳原创电影音乐
   └──谭盾 (id:1087212)
  最佳原创电影歌曲(提名)
   └──王菲 (id:1004858)
  最佳音响效果
   └──陶经 (id:1298913)
  最佳视觉效果

  第23届中国电影金鸡奖 (2003)
  最佳导演
   └──张艺谋 (id:1054398)
  最佳合拍片
  最佳美术
  最佳录音
   └──陶经 (id:1298913)

  第26届大众电影百花奖 (2003)
  最佳故事片

  第3届华语电影传媒大奖 (2003)
  最受欢迎华语电影

  第10届北京大学生电影节 (2003)
  最佳观赏效果奖
  中国电影杰出贡献奖
   └──张艺谋 (id:1054398)

  1. ##### MediaInfo ######
  2. General
  3. Unique ID                                : 194869299004671310818011353643883956635 (0x929A7639CD3F1EFEAEF0253408E4099B)
  4. Complete name                            : Hero.2002.BluRay.1080p.x265.10bit.2Audio-MiniHD.mkv
  5. Format                                   : Matroska
  6. Format version                           : Version 4
  7. File size                                : 5.01 GiB
  8. Duration                                 : 1 h 39 min
  9. Overall bit rate                         : 7 228 kb/s
  10. Encoded date                             : UTC 2017-12-17 07:27:59
  11. Writing application                      : mkvmerge v18.0.0 ('Apricity') 64-bit
  12. Writing library                          : libebml v1.3.5 + libmatroska v1.4.8
  13. Video
  14. ID                                       : 1
  15. Format                                   : HEVC
  16. Format/Info                              : High Efficiency Video Coding
  17. Format profile                           : Main 10@L4@High
  18. Codec ID                                 : V_MPEGH/ISO/HEVC
  19. Duration                                 : 1 h 39 min
  20. Bit rate                                 : 5 921 kb/s
  21. Width                                    : 1 920 pixels
  22. Height                                   : 818 pixels
  23. Display aspect ratio                     : 2.35:1
  24. Frame rate mode                          : Constant
  25. Frame rate                               : 23.976 (24000/1001/53354) FPS
  26. Color space                              : YUV
  27. Chroma subsampling                       : 4:2:0
  28. Bit depth                                : 10 bits
  29. Bits/(Pixel*Frame)                       : 0.157
  30. Stream size                              : 4.10 GiB (82%)
  31. Title                                    : Video.HEVC
  32. Default                                  : Yes
  33. Forced                                   : No
  34. Color range                              : Limited
  35. Color primaries                          : BT.709
  36. Audio #1
  37. ID                                       : 2
  38. Format                                   : AC-3
  39. Format/Info                              : Audio Coding 3
  40. Commercial name                          : Dolby Digital
  41. Codec ID                                 : A_AC3
  42. Duration                                 : 1 h 39 min
  43. Bit rate mode                            : Constant
  44. Bit rate                                 : 640 kb/s
  45. Channel(s)                               : 6 channels
  46. Channel layout                           : L R C LFE Ls Rs
  47. Sampling rate                            : 48.0 kHz
  48. Frame rate                               : 31.250 FPS (1536 SPF)
  49. Compression mode                         : Lossy
  50. Stream size                              : 454 MiB (9%)
  51. Title                                    : 国语.ac3-5.1
  52. Language                                 : Chinese
  53. Service kind                             : Complete Main
  54. Default                                  : Yes
  55. Forced                                   : No
  56. Audio #2
  57. ID                                       : 3
  58. Format                                   : AC-3
  59. Format/Info                              : Audio Coding 3
  60. Commercial name                          : Dolby Digital
  61. Codec ID                                 : A_AC3
  62. Duration                                 : 1 h 39 min
  63. Bit rate mode                            : Constant
  64. Bit rate                                 : 640 kb/s
  65. Channel(s)                               : 6 channels
  66. Channel layout                           : L R C LFE Ls Rs
  67. Sampling rate                            : 48.0 kHz
  68. Frame rate                               : 31.250 FPS (1536 SPF)
  69. Compression mode                         : Lossy
  70. Stream size                              : 454 MiB (9%)
  71. Title                                    : english.ac3-5.1
  72. Language                                 : English
  73. Service kind                             : Complete Main
  74. Default                                  : No
  75. Forced                                   : No
  76. Text #1
  77. ID                                       : 4
  78. Format                                   : PGS
  79. Codec ID                                 : S_HDMV/PGS
  80. Codec ID/Info                            : Picture based subtitle format used on BDs/HD-DVDs
  81. Duration                                 : 1 h 32 min
  82. Bit rate                                 : 6 736 b/s
  83. Count of elements                        : 1322
  84. Stream size                              : 4.48 MiB (0%)
  85. Title                                    : 简体.sup
  86. Language                                 : Chinese
  87. Default                                  : Yes
  88. Forced                                   : No
  89. Text #2
  90. ID                                       : 5
  91. Format                                   : PGS
  92. Codec ID                                 : S_HDMV/PGS
  93. Codec ID/Info                            : Picture based subtitle format used on BDs/HD-DVDs
  94. Duration                                 : 1 h 32 min
  95. Bit rate                                 : 6 971 b/s
  96. Count of elements                        : 1322
  97. Stream size                              : 4.63 MiB (0%)
  98. Title                                    : 繁体.sup
  99. Language                                 : Chinese
  100. Default                                  : No
  101. Forced                                   : No
  102. Text #3
  103. ID                                       : 6
  104. Format                                   : PGS
  105. Codec ID                                 : S_HDMV/PGS
  106. Codec ID/Info                            : Picture based subtitle format used on BDs/HD-DVDs
  107. Duration                                 : 1 h 28 min
  108. Bit rate                                 : 13.0 kb/s
  109. Count of elements                        : 1054
  110. Stream size                              : 8.21 MiB (0%)
  111. Title                                    : Eng.sup
  112. Language                                 : English
  113. Default                                  : No
  114. Forced                                   : No
  115. Menu
  116. 00:00:00.000                             : en:Chapter 01
  117. 00:07:40.835                             : en:Chapter 02
  118. 00:15:31.222                             : en:Chapter 03
  119. 00:23:21.483                             : en:Chapter 04
  120. 00:28:39.927                             : en:Chapter 05
  121. 00:34:48.670                             : en:Chapter 06
  122. 00:40:00.607                             : en:Chapter 07
  123. 00:48:02.671                             : en:Chapter 08
  124. 00:57:14.514                             : en:Chapter 09
  125. 01:06:33.865                             : en:Chapter 10
  126. 01:15:46.041                             : en:Chapter 11
  127. 01:23:30.380                             : en:Chapter 12
  128. 01:29:18.270                             : en:Chapter 13
  129. 01:33:38.655                             : en:Chapter 14
  130. 01:39:11.904                             : en:Chapter 15





此处一般会放置磁力链或种子下载链接,不过此链接需要注册会员才能看到,点击“立即注册”
磁力链下载【下载链接仅对注册会员开放,登陆后可见】
BT9527电影天堂 1、BT9527电影天堂提供的BT文件均来源于互联网抓取,只供网友学习交流、技术提升使用。
2、我们遵守BitTorrent点对点协议原则,任何版权问题请联系原资源发布商,我们不处理任何版权纠纷,谢谢!如有争议请联系邮箱:BT9527#hotmail.com(#换成@)
3、如果您发现某页面或地址有错误,请联系站长邮箱BT9527#hotmail.com(#换成@),我们会尽快处理。您的热心是对BT9527电影天堂最大的支持。
4、本站建议去正规影院观看电影以支持电影行业发展。
最新回复 (0)

你可以在 登录 or 注册 后,对此帖发表评论!

返回
发新帖