让子弹飞[国语音轨/简繁英字幕].Let.The.Bullets.Fly.2010.Bluray.1080p.x265.10bit.2Audio-MiniHD 6.12GB

版主小s 3月前 200

✔资源类型:暂未分类   ✔电影年份:2010   ✔电影地区:大陆   ✔电影分类:剧情

◎译  名 让子弹飞 / 让子弹飞一会儿 / 火烧云 / Let The Bullets Fly
◎年  代 2010
◎产  地 中国大陆 / 中国香港
◎类  别 剧情 / 喜剧 / 动作 / 西部
◎语  言 汉语普通话 / 四川话 / 山西话
◎上映日期 2010-12-16(中国大陆)
◎IMDb链接 https://www.imdb.com/title/tt1533117/
◎豆瓣评分 8.9/10 (1529238人评价)
◎豆瓣链接 https://movie.douban.com/subject/3742360/
◎片  长 132分钟
◎导  演 姜文 Wen Jiang (id:1021999)
◎编  剧 朱苏进 Sujin Zhu (id:1275244)
       述平 Shuping (id:1275245)
       姜文 Wen Jiang (id:1021999)
       郭俊立 Junli Guo (id:1274911)
       危笑 Xiao Wei (id:1275961)
       李不空 Bukong Li (id:1275962)
       马识途 Shitu Ma (id:1275963)
◎演  员 姜文 Wen Jiang (id:1021999)
       葛优 You Ge (id:1000905)
       周润发 Yun-Fat Chow (id:1044899)
       刘嘉玲 Carina Lau (id:1036905)
       陈坤 Kun Chen (id:1053618)
       张默 Mo Zhang (id:1026454)
       姜武 Wu Jiang (id:1274290)
       周韵 Yun Zhou (id:1037851)
       廖凡 Fan Liao (id:1007401)
       姚橹 Lu Yao (id:1274497)
       邵兵 Bing Shao (id:1274884)
       苗圃 Pu Miao (id:1033846)
       冯小刚 Xiaogang Feng (id:1274255)
       胡军 Jun Hu (id:1032540)
       马珂 Ke Ma (id:1275964)
       白冰 Bing Bai (id:1275547)
       杜奕衡 John Do (id:1275965)
       李静 Jing Li (id:1275973)
       胡明 Ming Hu (id:1275967)
       危笑 Xiao Wei (id:1275961)
       杨奇雨 Qiyu Yang (id:1275968)
       赵铭 Ming Zhao (id:1313245)
       宣晓鸣 Xiaoming Xuan (id:1320627)
       绀野千春 Chiharu Konno (id:1016528)
       郭俊立 Junli Guo (id:1274911)
       马元 Yuan Ma (id:1317056)
       姜洪齐 Hongqi Jiang (id:1344685)
       岳红 Hong Yue (id:1052863)
       吴昔果 Xiguo Wu (id:1397608)
       沙瑀 Yu Sha (id:1397607)
       陈磊 Lei Chen (id:1397606)
       文祥 Xiang Wen (id:1326492)
       马珂 Ke Ma (id:1275964)
       周莉 Li Zhou (id:1397612)
       杨受成 Albert Yeung (id:1313455)
       尹红波 Hongbo Yin (id:1397610)
       韩三平 Sanping Han (id:1274843)
       姜文 Wen Jiang (id:1021999)
       董韵诗 Barbie Tung (id:1299616)
       董平 Ping Dong (id:1380636)
       陈美静 Meijing Chen (id:1406323)
       利雅博 Albert Lee (id:1326683)
       赵海城 Haicheng Zhao (id:1392082)
       何世平 Shiping He (id:1397609)
       久石让 Joe Hisaishi (id:1035647)
       舒楠 Nan Shu (id:1332977)
       于飞 Fei Yu (id:1445404)
       董大欣 Daxin Dong (id:1397777)
       李强 Qiang Li (id:1397776)
       李天雷 Tianlei Li (id:1449034)
       赵非 Fei Zhao (id:1283522)
       张琳 Lin Zhang (id:1397605)
       王思晓 Sixiao Wang (id:1397604)
       曹伟杰 Weijie Cao (id:1328031)
       姜文 Wen Jiang (id:1021999)
       黄家能 Eddie Wong (id:1328034)
       高亦光 Yiguang Gao (id:1328032)
       于庆华 Qinghua Yu (id:1328033)
       张叔平 William Chang (id:1274369)
       张叔平 William Chang (id:1274369)
       刘建奇 Jianqi Liu (id:1441889)
       崔紫雄 Zixiong Cui (id:1384153)
       张晴帆 Zhang Qingfan (id:1384381)
       危笑 Xiao Wei (id:1275961)
       宣晓鸣 Xiaoming Xuan (id:1320627)
       吴昔果 Xiguo Wu (id:1397608)
       王钢 Gang Wang (id:1330582)
       刘禹霆 Yuting Liu (id:1438990)
       温波 Bo Wen (id:1330581)
       谢伊文 Yi Man Tse (id:1330587)
       安地 Andy Friend (id:1397205)
       黄海 Hai Huang (id:1401245)

◎简  介
  民国年间,花钱捐得县长的马邦德(葛优 饰)携妻(刘嘉玲 饰)及随从走马上任。途经南国某地,遭劫匪张麻子(姜文 饰)一伙伏击,随从尽死,只夫妻二人侥幸活命。马为保命,谎称自己是县长的汤 师爷。为汤师爷许下的财富所动,张麻子摇身一变化身县长,带着手下赶赴鹅城上任。有道是天高皇帝远,鹅城地处偏僻,一方霸主黄四郎(周润发 饰)只手遮天,全然不将这个新来的县长放在眼里。张麻子痛打了黄的武教头(姜武 饰),黄则设计害死张的义子小六(张默 饰)。原本只想赚钱的马邦德,怎么也想不到竟会被卷入这场土匪和恶霸的角力之中。鹅城上空愁云密布,血雨腥风在所难免……                                    
                                本片根据马识途的小说《夜谭十记》中的《盗官记》一章改编。

◎获奖情况 (共36项)
  第48届台北金马影展 (2011)
  金马奖 最佳剧情片(提名)
  金马奖 最佳导演(提名)
   └──姜文 (id:1021999)
  金马奖 最佳男主角(提名)
   └──葛优 (id:1000905)
  金马奖 最佳女配角(提名)
   └──刘嘉玲 (id:1036905)
  金马奖 最佳改编剧本
  金马奖 最佳摄影
   └──赵非 (id:1283522)
  金马奖 最佳造型设计(提名)
   └──张叔平 (id:1274369)
  金马奖 最佳音效(提名)
  金马奖 最佳视觉效果(提名)

  第31届香港电影金像奖 (2012)
  最佳电影(提名)
  最佳导演(提名)
   └──姜文 (id:1021999)
  最佳编剧(提名)
  最佳男主角(提名)
  最佳女配角(提名)
   └──刘嘉玲 (id:1036905)
  最佳摄影(提名)
   └──赵非 (id:1283522)
  最佳剪接(提名)
  最佳美术指导(提名)
  最佳服装造型设计
   └──张叔平 (id:1274369)
  最佳动作设计(提名)
  最佳音响效果(提名)
  最佳视觉效果(提名)

  第6届亚洲电影大奖 (2012)
  最高票房亚洲电影大奖

  第5届亚洲电影大奖 (2011)
  我最喜爱的男女主角 我最喜爱的男主角
   └──周润发 (id:1044899)
  最佳电影(提名)
  最佳导演(提名)
   └──姜文 (id:1021999)
  最佳男主角(提名)
   └──周润发 (id:1044899)
  最佳女配角(提名)
   └──刘嘉玲 (id:1036905)
  最佳编剧(提名)
   └──姜文 (id:1021999)
  最佳造型设计
   └──张叔平 (id:1274369)

  第11届华语电影传媒大奖 (2011)
  百家传媒年度致敬电影
  观众票选最受瞩目电影
  最佳导演
   └──姜文 (id:1021999)
  最佳男主角
   └──葛优 (id:1000905)

  第1届豆瓣电影鑫像奖 (2011)
  鑫豆单元 最佳影片(华语)
  鑫豆单元 最佳导演(华语)
   └──姜文 (id:1021999)
  鑫豆单元 最佳男演员(华语)
   └──葛优 (id:1000905)

  1. ##### MediaInfo ######
  2. General
  3. Unique ID                                : 215570134247323021887975986450687412682 (0xA22D4C33DAF71114A903CE1D3C6D49CA)
  4. Complete name                            : Let.The.Bullets.Fly.2010.Bluray.1080p.x265.10bit.2Audio-MiniHD.mkv
  5. Format                                   : Matroska
  6. Format version                           : Version 4
  7. File size                                : 6.11 GiB
  8. Duration                                 : 2 h 12 min
  9. Overall bit rate                         : 6 629 kb/s
  10. Encoded date                             : UTC 2017-12-21 13:33:00
  11. Writing application                      : mkvmerge v18.0.0 ('Apricity') 64-bit
  12. Writing library                          : libebml v1.3.5 + libmatroska v1.4.8
  13. Video
  14. ID                                       : 1
  15. Format                                   : HEVC
  16. Format/Info                              : High Efficiency Video Coding
  17. Format profile                           : Main 10@L4@High
  18. Codec ID                                 : V_MPEGH/ISO/HEVC
  19. Duration                                 : 2 h 12 min
  20. Bit rate                                 : 5 241 kb/s
  21. Width                                    : 1 920 pixels
  22. Height                                   : 816 pixels
  23. Display aspect ratio                     : 2.35:1
  24. Frame rate mode                          : Constant
  25. Frame rate                               : 24.000 FPS
  26. Color space                              : YUV
  27. Chroma subsampling                       : 4:2:0
  28. Bit depth                                : 10 bits
  29. Bits/(Pixel*Frame)                       : 0.139
  30. Stream size                              : 4.83 GiB (79%)
  31. Title                                    : Video.HEVC
  32. Default                                  : Yes
  33. Forced                                   : No
  34. Color range                              : Limited
  35. Color primaries                          : BT.709
  36. Audio #1
  37. ID                                       : 2
  38. Format                                   : AC-3
  39. Format/Info                              : Audio Coding 3
  40. Commercial name                          : Dolby Digital
  41. Codec ID                                 : A_AC3
  42. Duration                                 : 2 h 12 min
  43. Bit rate mode                            : Constant
  44. Bit rate                                 : 640 kb/s
  45. Channel(s)                               : 6 channels
  46. Channel layout                           : L R C LFE Ls Rs
  47. Sampling rate                            : 48.0 kHz
  48. Frame rate                               : 31.250 FPS (1536 SPF)
  49. Compression mode                         : Lossy
  50. Stream size                              : 604 MiB (10%)
  51. Title                                    : 普通话.AC3-5.1
  52. Language                                 : Chinese
  53. Service kind                             : Complete Main
  54. Default                                  : Yes
  55. Forced                                   : No
  56. Audio #2
  57. ID                                       : 3
  58. Format                                   : AC-3
  59. Format/Info                              : Audio Coding 3
  60. Commercial name                          : Dolby Digital
  61. Codec ID                                 : A_AC3
  62. Duration                                 : 2 h 12 min
  63. Bit rate mode                            : Constant
  64. Bit rate                                 : 640 kb/s
  65. Channel(s)                               : 6 channels
  66. Channel layout                           : L R C LFE Ls Rs
  67. Sampling rate                            : 48.0 kHz
  68. Frame rate                               : 31.250 FPS (1536 SPF)
  69. Compression mode                         : Lossy
  70. Stream size                              : 604 MiB (10%)
  71. Title                                    : 四川话.AC3-5.1
  72. Language                                 : Chinese
  73. Service kind                             : Complete Main
  74. Default                                  : No
  75. Forced                                   : No
  76. Text #1
  77. ID                                       : 4
  78. Format                                   : PGS
  79. Codec ID                                 : S_HDMV/PGS
  80. Codec ID/Info                            : Picture based subtitle format used on BDs/HD-DVDs
  81. Duration                                 : 2 h 11 min
  82. Bit rate                                 : 29.2 kb/s
  83. Count of elements                        : 5269
  84. Stream size                              : 27.4 MiB (0%)
  85. Title                                    : 简体中文.SUP
  86. Language                                 : Chinese
  87. Default                                  : Yes
  88. Forced                                   : No
  89. Text #2
  90. ID                                       : 5
  91. Format                                   : PGS
  92. Codec ID                                 : S_HDMV/PGS
  93. Codec ID/Info                            : Picture based subtitle format used on BDs/HD-DVDs
  94. Duration                                 : 2 h 11 min
  95. Bit rate                                 : 30.2 kb/s
  96. Count of elements                        : 5269
  97. Stream size                              : 28.3 MiB (0%)
  98. Title                                    : 繁体中文.SUP
  99. Language                                 : Chinese
  100. Default                                  : No
  101. Forced                                   : No
  102. Text #3
  103. ID                                       : 6
  104. Format                                   : PGS
  105. Codec ID                                 : S_HDMV/PGS
  106. Codec ID/Info                            : Picture based subtitle format used on BDs/HD-DVDs
  107. Duration                                 : 2 h 7 min
  108. Bit rate                                 : 48.5 kb/s
  109. Count of elements                        : 4906
  110. Stream size                              : 44.4 MiB (1%)
  111. Title                                    : english.sup
  112. Language                                 : English
  113. Default                                  : No
  114. Forced                                   : No
  115. Menu
  116. 00:00:00.000                             : en:Chapter 01
  117. 00:07:16.082                             : en:Chapter 02
  118. 00:14:34.457                             : en:Chapter 03
  119. 00:22:37.915                             : en:Chapter 04
  120. 00:30:26.958                             : en:Chapter 05
  121. 00:34:41.333                             : en:Chapter 06
  122. 00:41:57.708                             : en:Chapter 07
  123. 00:47:32.875                             : en:Chapter 08
  124. 00:54:45.791                             : en:Chapter 09
  125. 01:02:59.625                             : en:Chapter 10
  126. 01:09:15.541                             : en:Chapter 11
  127. 01:12:37.582                             : en:Chapter 12
  128. 01:21:01.750                             : en:Chapter 13
  129. 01:30:25.457                             : en:Chapter 14
  130. 01:36:17.666                             : en:Chapter 15
  131. 01:46:05.957                             : en:Chapter 16
  132. 01:54:11.082                             : en:Chapter 17
  133. 02:04:09.332                             : en:Chapter 18
  134. 02:12:00.082                             : en:Chapter 19





此处一般会放置磁力链或种子下载链接,不过此链接需要注册会员才能看到,点击“立即注册”
磁力链下载【下载链接仅对注册会员开放,登陆后可见】
BT9527电影天堂 1、BT9527电影天堂提供的BT文件均来源于互联网抓取,只供网友学习交流、技术提升使用。
2、我们遵守BitTorrent点对点协议原则,任何版权问题请联系原资源发布商,我们不处理任何版权纠纷,谢谢!如有争议请联系邮箱:BT9527#hotmail.com(#换成@)
3、如果您发现某页面或地址有错误,请联系站长邮箱BT9527#hotmail.com(#换成@),我们会尽快处理。您的热心是对BT9527电影天堂最大的支持。
4、本站建议去正规影院观看电影以支持电影行业发展。
最新回复 (0)

你可以在 登录 or 注册 后,对此帖发表评论!

返回
发新帖