无双[杜比视界版本][国语配音/中文字幕].Project.Gutenberg.2018.2160p.WEB-DL.H265.DV.DDP5.1.Atmos.2Audio-HDBWEB 4.82GB

版主小s 3月前 253

✔资源类型:4K   ✔电影年份:2018   ✔电影地区:大陆   ✔电影分类:剧情

◎译  名 无双 / Project Gutenberg / Mo seung
◎片  名 無雙
◎年  代 2018
◎产  地 中国大陆 / 中国香港
◎类  别 剧情 / 动作 / 悬疑 / 犯罪
◎语  言 汉语普通话 / 粤语 / 英语 / 泰语 / 波兰语
◎上映日期 2018-09-30(中国大陆) / 2018-10-04(中国香港)
◎IMDb链接 https://www.imdb.com/title/tt7183578/
◎豆瓣评分 8.0/10 (876458人评价)
◎豆瓣链接 https://movie.douban.com/subject/26425063/
◎片  长 130分钟
◎导  演 庄文强 Felix Chong (id:1014716)
◎编  剧 庄文强 Felix Chong (id:1014716)
◎演  员 周润发 Yun-Fat Chow (id:1044899)
       郭富城 Aaron Kwok (id:1041390)
       张静初 Jingchu Zhang (id:1016668)
       冯文娟 Wenjuan Feng (id:1325753)
       廖启智 Kai Chi Liu (id:1274268)
       周家怡 Catherine Chau (id:1321491)
       王耀庆 David Wang (id:1316330)
       方中信 Alex Fong (id:1033102)
       高捷 Jack Kao (id:1276076)
       邢佳栋 Jiadong Xing (id:1274762)
       张松枝 Deno Cheung (id:1339097)
       张建声 Justin Cheung (id:1323927)
       吴嘉龙 Carl Wu (id:1214684)
       孙佳君 Paulyn Sun (id:1050664)
       林嘉华 Dominic Lam (id:1321559)
       梁健平 Kin Ping Leung (id:1345882)
       钟溥敏 Mandy Chung (id:1431512)
       安吉·阿维斯塔 Angie Aveestar (id:1433162)
       何国男 Jordan Ho (id:1472516)
       吴文舜 Man-Shun Ng (id:1472568)
       于冬 Dong Yu (id:1317865)
       杨受成 Albert Yeung (id:1313455)
       黄斌 Ronald Wong (id:1301199)
       邵剑秋 Kim-Chau Shiu (id:1413263)
       戴伟 Day Tai (id:1337786)
       关智耀 Jason Kwan Chi-Yiu (id:1318237)
       彭正熙 Curran Pang (id:1305790)
       麦兆辉 Alan Mak (id:1126158)
       钟楚婷 Cho Ting Chung (id:1325299)
       萨荣育·拿恩赛 Sarunyu Nurnsai (id:1410803)
       凯康沃·容萨孔 Kaikangwol Rungsakorn (id:1410802)
       达纳拉特·迪蒂罗贾纳 Dhanarat Dhitirojana (id:1410801)
       林洪峯 Alex Lim Hung Fung (id:1330656)
       李忠志 Chung Chi Li (id:1014763)

◎简  介
  身陷囹圄的李问(郭富城 饰)被引渡回港,他原本隶属于一个的跨国假钞制贩组织。该组织曾犯下过多宗恶性案件,而首脑“画家”不仅始终逍遥法外,连真面目都没人知道。为了逼迫李问吐露“画家”真实身份,警方不惜用足以判死刑的假罪证使其就范。就在此时,富有的遗孀阮文(张静初 饰)申请保释李问,而警方提出的条件依然是“画家”的真面目。                                    
                                原来早在十数年前,李问和阮文是一对画家情侣,无奈女友的作品受人青睐,李问的画作却被贬得一文不值。就在此困顿期间,他制作假画的才能被“画家”(周润发 饰)发掘,进而成为对方美元假币团伙中的一员……

◎获奖情况 (共26项)
  第38届香港电影金像奖 (2019)
  最佳电影
   └──庄文强 (id:1014716)
  最佳导演
   └──庄文强 (id:1014716)
  最佳编剧
   └──庄文强 (id:1014716)
  最佳男主角(提名)
  最佳女主角(提名)
   └──张静初 (id:1016668)
  最佳男配角(提名)
   └──廖启智 (id:1274268)
  最佳女配角(提名)
   └──周家怡 (id:1321491)
  最佳摄影
   └──关智耀 (id:1318237)
  最佳剪接
   └──彭正熙 (id:1305790)
  最佳美术指导
   └──林子侨 (id:1326654)
  最佳服装造型设计
   └──文念中 (id:1275158)
  最佳动作设计(提名)
   └──李忠志 (id:1014763)
  最佳原创电影音乐(提名)
   └──戴伟 (id:1337786)
  最佳原创电影歌曲(提名)
   └──戴伟 (id:1337786)
  最佳音响效果(提名)
  最佳视觉效果(提名)
   └──林洪峯 (id:1330656)

  第35届大众电影百花奖 (2020)
  最佳男主角(提名)
   └──周润发 (id:1044899)
  最佳女主角(提名)
   └──张静初 (id:1016668)
  最佳女配角(提名)
   └──冯文娟 (id:1325753)

  第13届亚洲电影大奖 (2019)
  最佳男主角(提名)
   └──郭富城 (id:1041390)
  最佳编剧(提名)
   └──庄文强 (id:1014716)
  最佳剪接(提名)
   └──彭正熙 (id:1305790)
  最佳造型设计(提名)
   └──文念中 (id:1275158)
  最佳视觉效果
   └──林洪峯 (id:1330656)

  第26届北京大学生电影节 (2019)
  最佳编剧奖(提名)
   └──庄文强 (id:1014716)

  第5届豆瓣电影年度榜单 (2018)
  评分最高的华语电影(提名)

  1. ##### MediaInfo ######
  2. General
  3. Complete name                            : 无双.Project.Gutenberg.2018.2160p.WEB-DL.H265.DV.DDP5.1.Atmos.2Audio-HDBWEB.mp4
  4. Format                                   : MPEG-4
  5. Format profile                           : Base Media / Version 2
  6. Codec ID                                 : mp42 (mp42/iso6/isom/msdh/dby1)
  7. File size                                : 4.82 GiB
  8. Duration                                 : 2 h 9 min
  9. Overall bit rate                         : 5 319 kb/s
  10. Encoded date                             : UTC 2022-06-11 01:59:20
  11. Tagged date                              : UTC 2022-06-11 01:59:20
  12. Video
  13. ID                                       : 1
  14. Format                                   : HEVC
  15. Format/Info                              : High Efficiency Video Coding
  16. Format profile                           : Main 10@L5@Main
  17. HDR format                               : Dolby Vision, Version 1.0, dvhe.05.06, BL+RPU
  18. Codec ID                                 : dvhe
  19. Codec ID/Info                            : High Efficiency Video Coding with Dolby Vision
  20. Duration                                 : 2 h 9 min
  21. Bit rate                                 : 4 420 kb/s
  22. Width                                    : 3 840 pixels
  23. Height                                   : 2 160 pixels
  24. Display aspect ratio                     : 16:9
  25. Frame rate mode                          : Constant
  26. Frame rate                               : 24.000 FPS
  27. Color space                              : YUV
  28. Chroma subsampling                       : 4:2:0
  29. Bit depth                                : 10 bits
  30. Bits/(Pixel*Frame)                       : 0.022
  31. Stream size                              : 4.00 GiB (83%)
  32. Default                                  : Yes
  33. Alternate group                          : 1
  34. Encoded date                             : UTC 2022-06-11 01:59:20
  35. Tagged date                              : UTC 2022-06-11 01:59:20
  36. Color range                              : Full
  37. Codec configuration box                  : hvcC+dvcC
  38. Audio #1
  39. ID                                       : 2
  40. Format                                   : E-AC-3 JOC
  41. Format/Info                              : Enhanced AC-3 with Joint Object Coding
  42. Commercial name                          : Dolby Digital Plus with Dolby Atmos
  43. Codec ID                                 : ac-3
  44. Duration                                 : 2 h 9 min
  45. Bit rate mode                            : Constant
  46. Bit rate                                 : 448 kb/s
  47. Channel(s)                               : 6 channels
  48. Channel layout                           : L R C LFE Ls Rs
  49. Sampling rate                            : 48.0 kHz
  50. Frame rate                               : 31.250 FPS (1536 SPF)
  51. Compression mode                         : Lossy
  52. Stream size                              : 415 MiB (8%)
  53. Language                                 : Chinese
  54. Service kind                             : Complete Main
  55. Default                                  : Yes
  56. Alternate group                          : 2
  57. Encoded date                             : UTC 2022-06-11 01:59:20
  58. Tagged date                              : UTC 2022-06-11 01:59:20
  59. Complexity index                         : Not present / 16
  60. Number of dynamic objects                : 15
  61. Bed channel count                        : 1 channel
  62. Bed channel configuration                : LFE
  63. Audio #2
  64. ID                                       : 3
  65. Format                                   : E-AC-3 JOC
  66. Format/Info                              : Enhanced AC-3 with Joint Object Coding
  67. Commercial name                          : Dolby Digital Plus with Dolby Atmos
  68. Codec ID                                 : ac-3
  69. Duration                                 : 2 h 9 min
  70. Bit rate mode                            : Constant
  71. Bit rate                                 : 448 kb/s
  72. Channel(s)                               : 6 channels
  73. Channel layout                           : L R C LFE Ls Rs
  74. Sampling rate                            : 48.0 kHz
  75. Frame rate                               : 31.250 FPS (1536 SPF)
  76. Compression mode                         : Lossy
  77. Stream size                              : 415 MiB (8%)
  78. Language                                 : Chinese
  79. Service kind                             : Complete Main
  80. Default                                  : No
  81. Alternate group                          : 2
  82. Encoded date                             : UTC 2022-06-11 01:59:20
  83. Tagged date                              : UTC 2022-06-11 01:59:20
  84. Complexity index                         : Not present / 16
  85. Number of dynamic objects                : 15
  86. Bed channel count                        : 1 channel
  87. Bed channel configuration                : LFE





此处一般会放置磁力链或种子下载链接,不过此链接需要注册会员才能看到,点击“立即注册”
磁力链下载【下载链接仅对注册会员开放,登陆后可见】
BT9527电影天堂 1、BT9527电影天堂提供的BT文件均来源于互联网抓取,只供网友学习交流、技术提升使用。
2、我们遵守BitTorrent点对点协议原则,任何版权问题请联系原资源发布商,我们不处理任何版权纠纷,谢谢!如有争议请联系邮箱:BT9527#hotmail.com(#换成@)
3、如果您发现某页面或地址有错误,请联系站长邮箱BT9527#hotmail.com(#换成@),我们会尽快处理。您的热心是对BT9527电影天堂最大的支持。
4、本站建议去正规影院观看电影以支持电影行业发展。
最新回复 (0)

你可以在 登录 or 注册 后,对此帖发表评论!

返回
发新帖