武神苏乞儿之红莲虫蛊[杜比视界版本][国语配音/中文字幕].Kongfu.Master.Su.2022.2160p.WEB-DL.H265.DV.DDP2.0-HDBWEB 6.57GB

版主小s 3月前 141

✔资源类型:4K   ✔电影年份:2022   ✔电影地区:大陆   ✔电影分类:喜剧

◎译  名 武神苏乞儿之红莲虫蛊 / 武神苏乞儿 / Kongfu Master Su
◎年  代 2022
◎产  地 中国大陆
◎类  别 喜剧 / 动作 / 古装
◎语  言 汉语普通话
◎上映日期 2022-01-25(中国大陆)
◎IMDb链接 https://www.imdb.com/title//
◎豆瓣链接 https://movie.douban.com/subject/30482064/
◎片  长 90分钟
◎导  演 杨健武 Kin Mo Yeung (id:1362268)
◎编  剧 苏悦年 Yuenian Su (id:1368665)
◎演  员 陈信喆 Xin Zer Tan (id:1364982)
       蓝心妍 Leni Lan (id:1314763)
       徐少强 Norman Chu (id:1048469)
       程琢 Zhuo Cheng (id:1414927)
       李柏蓉 Borong Li (id:1398886)
       温菡 Han Wen (id:1372607)

◎简  介
  清末鸦片战争前夕,国力羸弱,鸦片肆虐,民不聊生。民团教头黄飞鸿被秘密组织火莲教暗算,生死未卜,禁烟行动也因此受阻。苏灿临危受命,与江湖丐帮女子明心联手继续彻查火莲教销售鸦片的证据;同时深入虎穴,全力营救黄飞鸿。火莲教将鸦片比作仙草,用奇门异术蛊惑民心。期间,操纵傀儡药人的绝偃道长、神秘阴毒的邪皇,亦敌亦友的火莲教女杀手明灵陆续登场,邪皇设局陷害苏灿将其抄家贬为乞丐,桀骜不驯的苏灿跌入谷底,生不如死。在心仪苏灿的明心帮助下,丐帮长老将禁地绝学传与苏灿。重新振作的苏灿联合禁烟大臣李大人,与火莲教展开终极决战,热血男儿苏乞儿由此踏上了一条救国之路……
  1. ##### MediaInfo ######
  2. General
  3. Complete name                            : 武神苏乞儿之红莲虫蛊.Kongfu.Master.Su.2022.2160p.WEB-DL.H265.DV.DDP2.0-HDBWEB.mp4
  4. Format                                   : MPEG-4
  5. Format profile                           : Base Media / Version 2
  6. Codec ID                                 : mp42 (mp42/iso6/isom/msdh/dby1)
  7. File size                                : 6.57 GiB
  8. Duration                                 : 1 h 17 min
  9. Overall bit rate mode                    : Variable
  10. Overall bit rate                         : 12.1 Mb/s
  11. Encoded date                             : UTC 2022-06-11 07:22:10
  12. Tagged date                              : UTC 2022-06-11 07:22:10
  13. Video
  14. ID                                       : 1
  15. Format                                   : HEVC
  16. Format/Info                              : High Efficiency Video Coding
  17. Format profile                           : Main 10@L5@Main
  18. HDR format                               : Dolby Vision, Version 1.0, dvhe.05.06, BL+RPU
  19. Codec ID                                 : dvhe
  20. Codec ID/Info                            : High Efficiency Video Coding with Dolby Vision
  21. Duration                                 : 1 h 17 min
  22. Bit rate                                 : 11.6 Mb/s
  23. Width                                    : 3 840 pixels
  24. Height                                   : 1 632 pixels
  25. Display aspect ratio                     : 2.35:1
  26. Frame rate mode                          : Constant
  27. Frame rate                               : 25.000 FPS
  28. Color space                              : YUV
  29. Chroma subsampling                       : 4:2:0
  30. Bit depth                                : 10 bits
  31. Bits/(Pixel*Frame)                       : 0.074
  32. Stream size                              : 6.29 GiB (96%)
  33. Default                                  : Yes
  34. Alternate group                          : 1
  35. Encoded date                             : UTC 2022-06-11 07:22:10
  36. Tagged date                              : UTC 2022-06-11 07:22:10
  37. Color range                              : Full
  38. Codec configuration box                  : hvcC+dvcC
  39. Audio #1
  40. ID                                       : 2
  41. Format                                   : E-AC-3
  42. Format/Info                              : Enhanced AC-3
  43. Commercial name                          : Dolby Digital Plus
  44. Codec ID                                 : ac-3
  45. Duration                                 : 1 h 17 min
  46. Bit rate mode                            : Constant
  47. Bit rate                                 : 256 kb/s
  48. Channel(s)                               : 2 channels
  49. Channel layout                           : L R
  50. Sampling rate                            : 48.0 kHz
  51. Frame rate                               : 31.250 FPS (1536 SPF)
  52. Compression mode                         : Lossy
  53. Stream size                              : 143 MiB (2%)
  54. Language                                 : Chinese
  55. Service kind                             : Complete Main
  56. Default                                  : Yes
  57. Alternate group                          : 2
  58. Encoded date                             : UTC 2022-06-11 07:22:10
  59. Tagged date                              : UTC 2022-06-11 07:22:10
  60. Audio #2
  61. ID                                       : 3
  62. Format                                   : AAC LC
  63. Format/Info                              : Advanced Audio Codec Low Complexity
  64. Codec ID                                 : mp4a-40-2
  65. Duration                                 : 1 h 17 min
  66. Bit rate mode                            : Variable
  67. Bit rate                                 : 255 kb/s
  68. Channel(s)                               : 2 channels
  69. Channel layout                           : L R
  70. Sampling rate                            : 48.0 kHz
  71. Frame rate                               : 46.875 FPS (1024 SPF)
  72. Compression mode                         : Lossy
  73. Stream size                              : 141 MiB (2%)
  74. Language                                 : Chinese
  75. Default                                  : No
  76. Alternate group                          : 2
  77. Encoded date                             : UTC 2022-06-11 07:22:10
  78. Tagged date                              : UTC 2022-06-11 07:22:10





此处一般会放置磁力链或种子下载链接,不过此链接需要注册会员才能看到,点击“立即注册”
磁力链下载【下载链接仅对注册会员开放,登陆后可见】
BT9527电影天堂 1、BT9527电影天堂提供的BT文件均来源于互联网抓取,只供网友学习交流、技术提升使用。
2、我们遵守BitTorrent点对点协议原则,任何版权问题请联系原资源发布商,我们不处理任何版权纠纷,谢谢!如有争议请联系邮箱:BT9527#hotmail.com(#换成@)
3、如果您发现某页面或地址有错误,请联系站长邮箱BT9527#hotmail.com(#换成@),我们会尽快处理。您的热心是对BT9527电影天堂最大的支持。
4、本站建议去正规影院观看电影以支持电影行业发展。
最新回复 (0)

你可以在 登录 or 注册 后,对此帖发表评论!

返回