男狐聊斋3[杜比视界版本][国语配音/中文字幕].Nan.Hu.Liao.Zhai.3.2022.2160p.WEB-DL.H265.DV.AAC-HDBWEB 7.62GB

版主小s 3月前 279

✔资源类型:4K   ✔电影年份:2022   ✔电影地区:大陆   ✔电影分类:奇幻

◎译  名 男狐聊斋3 / 长生劫
◎年  代 2022
◎产  地 中国大陆
◎类  别 奇幻 / 古装
◎语  言 汉语普通话
◎上映日期 2022-06-11(中国大陆)
◎IMDb链接 https://www.imdb.com/title//
◎豆瓣链接 https://movie.douban.com/subject/35223659/
◎演  员 漆培鑫 Peixin Qi (id:1415497)
       高凯 Kai Gao (id:1379122)
       高智洋 Zhiyang Gao (id:1419712)
       罗佩 Jie Luo (id:1422107)

◎简  介
  《长生劫》是一部双男主电影,为系列人气电影《男狐聊斋》的第三部作品,讲述了凡人少年云月(高凯 饰)独活世间三百年,一直追寻自己长生的秘密。而青丘山狐族少主白辰(漆培鑫 饰)得姑姑白九颜指点,还了尘世恩情,便可飞升成仙。机缘巧合下尘世中白辰与凡人云月的相遇,让这段因缘蒙上了神秘面纱。
  1. ##### MediaInfo ######
  2. General
  3. Complete name                            : 男狐聊斋3.Nan.Hu.Liao.Zhai.3.2022.2160p.WEB-DL.H265.DV.AAC-HDBWEB.mp4
  4. Format                                   : MPEG-4
  5. Format profile                           : Base Media / Version 2
  6. Codec ID                                 : mp42 (mp42/iso6/isom/msdh/dby1)
  7. File size                                : 7.62 GiB
  8. Duration                                 : 1 h 34 min
  9. Overall bit rate mode                    : Variable
  10. Overall bit rate                         : 11.5 Mb/s
  11. Encoded date                             : UTC 2022-06-11 08:20:15
  12. Tagged date                              : UTC 2022-06-11 08:20:15
  13. Video
  14. ID                                       : 1
  15. Format                                   : HEVC
  16. Format/Info                              : High Efficiency Video Coding
  17. Format profile                           : Main 10@L5@Main
  18. HDR format                               : Dolby Vision, Version 1.0, dvhe.05.06, BL+RPU
  19. Codec ID                                 : dvhe
  20. Codec ID/Info                            : High Efficiency Video Coding with Dolby Vision
  21. Duration                                 : 1 h 34 min
  22. Bit rate                                 : 11.3 Mb/s
  23. Width                                    : 3 840 pixels
  24. Height                                   : 1 640 pixels
  25. Original height                          : 1 634 pixels
  26. Display aspect ratio                     : 2.35:1
  27. Frame rate mode                          : Constant
  28. Frame rate                               : 25.000 FPS
  29. Color space                              : YUV
  30. Chroma subsampling                       : 4:2:0
  31. Bit depth                                : 10 bits
  32. Bits/(Pixel*Frame)                       : 0.072
  33. Stream size                              : 7.45 GiB (98%)
  34. Default                                  : Yes
  35. Alternate group                          : 1
  36. Encoded date                             : UTC 2022-06-11 08:20:15
  37. Tagged date                              : UTC 2022-06-11 08:20:15
  38. Color range                              : Full
  39. Codec configuration box                  : hvcC+dvcC
  40. Audio
  41. ID                                       : 2
  42. Format                                   : AAC LC
  43. Format/Info                              : Advanced Audio Codec Low Complexity
  44. Codec ID                                 : mp4a-40-2
  45. Duration                                 : 1 h 34 min
  46. Bit rate mode                            : Variable
  47. Bit rate                                 : 253 kb/s
  48. Maximum bit rate                         : 258 kb/s
  49. Channel(s)                               : 2 channels
  50. Channel layout                           : L R
  51. Sampling rate                            : 48.0 kHz
  52. Frame rate                               : 46.875 FPS (1024 SPF)
  53. Compression mode                         : Lossy
  54. Stream size                              : 172 MiB (2%)
  55. Language                                 : Chinese
  56. Default                                  : Yes
  57. Alternate group                          : 2
  58. Encoded date                             : UTC 2022-06-11 08:20:15
  59. Tagged date                              : UTC 2022-06-11 08:20:15





此处一般会放置磁力链或种子下载链接,不过此链接需要注册会员才能看到,点击“立即注册”
磁力链下载【下载链接仅对注册会员开放,登陆后可见】
BT9527电影天堂 1、BT9527电影天堂提供的BT文件均来源于互联网抓取,只供网友学习交流、技术提升使用。
2、我们遵守BitTorrent点对点协议原则,任何版权问题请联系原资源发布商,我们不处理任何版权纠纷,谢谢!如有争议请联系邮箱:BT9527#hotmail.com(#换成@)
3、如果您发现某页面或地址有错误,请联系站长邮箱BT9527#hotmail.com(#换成@),我们会尽快处理。您的热心是对BT9527电影天堂最大的支持。
4、本站建议去正规影院观看电影以支持电影行业发展。
最新回复 (0)

你可以在 登录 or 注册 后,对此帖发表评论!

返回
发新帖