新喜剧之王[国语音轨/简英字幕].The.New.King.of.Comedy.2019.1080p.BluRay.DD5.1.x265-10bit-ENTHD 6.12GB

版主小s 21天前 45

✔资源类型:暂未分类   ✔电影年份:2019   ✔电影地区:大陆   ✔电影分类:剧情

◎译  名 新喜剧之王 / 喜剧之王2 / D计划 / The New King of Comedy / King of Comedy 2
◎年  代 2019
◎产  地 中国大陆 / 中国香港
◎类  别 剧情 / 喜剧
◎语  言 汉语普通话 / 粤语
◎上映日期 2019-02-05(中国大陆)
◎IMDb链接 https://www.imdb.com/title/tt9368628/
◎豆瓣评分 5.7/10 (385469人评价)
◎豆瓣链接 https://movie.douban.com/subject/4840388/
◎片  长 91分钟
◎导  演 周星驰 Stephen Chow (id:1048026)
       邱礼涛 Herman Yau (id:1274313)
◎编  剧 周星驰 Stephen Chow (id:1048026)
       江玉仪 Ivy Kong (id:1275631)
       李思臻 Kelvin Lee (id:1353740)
       赵博君 Bojun Zhao (id:1412871)
◎演  员 王宝强 Baoqiang Wang (id:1274388)
       鄂靖文 Jingwen E (id:1362292)
       张全蛋 Quandan Zhang (id:1350283)
       景如洋 Ruyang Jing (id:1408694)
       张琪 Qi Zhang (id:1314723)
       袁兴哲 Xingzhe Yuan (id:1372147)
       田启文 Kai Man Tin (id:1315882)
       黄骁鹏 Xiaopeng Huang (id:1398604)
       蔡哲睿 Zherui Cai (id:1408757)
       苗溢伦 Yilun Miao (id:1408758)
         (id:1408750)
       大卫·托罗克 David Torok (id:1408926)
       郭泱 Yang Guo (id:1386638)
       勃小龙 Pierre Bourdaud (id:1371197)
       潘玉成 Yucheng Pan (id:1412268)
       郭子恒 Ziheng Guo (id:1412594)
       庄其迁 Qiqian Zhuang (id:1412595)
       张柏芝 Cecilia Cheung (id:1003495)
       杨喻文 Eve Young (id:1421244)
       肖鹤 He Xiao (id:1400131)
       邵老五 Laowu Shao (id:1387307)
       罗心妍 Xinyan Luo (id:1421263)
       王昕岚 Xinlan Wang (id:1412874)
       龙思雨 Siyu Long (id:1421264)
       伍国宝 Guobao Wu (id:1421259)
       马汉毅 Hanyi Ma (id:1421438)
       周云淑 Yunshu Zhou (id:1421247)
       方志明 Zhiming Fang (id:1421255)
       赵芳华 Fanghua Zhao (id:1421265)
       单涛 Tao Shan (id:1420245)
       田惺 Xing Tian (id:1421238)
       黎荣森 Rongsen Li (id:1421243)
       黄洲龙 Zhoulong Huang (id:1421261)
       梅达池 Dachi Mei (id:1421431)
       周星驰 Stephen Chow (id:1048026)
       任仲伦 Zhonglun Ren (id:1333045)
       江平 Ping Jiang (id:1275114)
       赵海城 Haicheng Zhao (id:1392082)
       江玉仪 Ivy Kong (id:1275631)
       许建海 Jianhai Xu (id:1384186)
       喇培康 Peikang La (id:1397763)
       黄英华 Ying-Wah Wong (id:1301204)
       萨巴·马祖鲁姆 Saba Mazloum (id:1410493)
       白伊廷 Crystal Pa (id:1407538)
       罗伟豪 Wai-ho Law (id:1305817)

◎简  介
  大型影视基地,胸怀明星梦的女子如梦(鄂靖文 饰)已经在影视圈摸爬滚打了十多年,却依旧还是籍籍无名的龙套演员。平日里,在片场饱受剧组和其他演员的欺凌嘲笑,回到家则被恨铁不成钢的老爹指责,甚至扬言断绝父女关系。然而如梦一律微笑面对,天大的委屈也藏在心中,死皮赖脸地抓住每一个希望渺茫的机会。在此期间,她结识了热衷于跑龙套的李洋,早已过气却自视甚高的童星马可(王宝强 饰),更彻彻底底看清了自己以及爱情的真相。                                    
                                她是过于平凡的小人物,是一个不该有梦的女孩,是一个直到宇宙灭亡也永远不会得到演戏机会的可悲龙套……

◎获奖情况 (共5项)
  第39届香港电影金像奖 (2020)
  最佳电影(提名)
  最佳男配角(提名)
   └──张琪 (id:1314723)
  最佳新演员(提名)
   └──鄂靖文 (id:1362292)

  第19届华语电影传媒大奖 (2019)
  最佳新演员
   └──鄂靖文 (id:1362292)

  第5届豆瓣电影年度榜单 (2018)
  最值得期待的华语电影(提名)

  1. ##### MediaInfo ######
  2. General
  3. Unique ID                                : 107303207108618721454132993435609037688 (0x50B9D8917C33A0ABBE9255FE5CE77B78)
  4. Complete name                            : The.New.King.of.Comedy.2019.1080p.BluRay.DD5.1.x265-10bit-ENTHD.mkv
  5. Format                                   : Matroska
  6. Format version                           : Version 4
  7. File size                                : 6.12 GiB
  8. Duration                                 : 1 h 30 min
  9. Overall bit rate                         : 9 723 kb/s
  10. Movie name                               : The New King of Comedy 2019 1080p BluRay DD5.1 x265-10bit-HDS
  11. Encoded date                             : UTC 2022-06-12 01:43:02
  12. Writing application                      : mkvmerge v67.0.0 ('Under Stars') 64-bit
  13. Writing library                          : libebml v1.4.2 + libmatroska v1.6.4
  14. Video
  15. ID                                       : 1
  16. Format                                   : HEVC
  17. Format/Info                              : High Efficiency Video Coding
  18. Format profile                           : Main 10@L5.1@High
  19. Codec ID                                 : V_MPEGH/ISO/HEVC
  20. Duration                                 : 1 h 30 min
  21. Bit rate                                 : 8 182 kb/s
  22. Width                                    : 1 920 pixels
  23. Height                                   : 804 pixels
  24. Display aspect ratio                     : 2.40:1
  25. Frame rate mode                          : Constant
  26. Frame rate                               : 24.000 FPS
  27. Color space                              : YUV
  28. Chroma subsampling                       : 4:2:0
  29. Bit depth                                : 10 bits
  30. Bits/(Pixel*Frame)                       : 0.221
  31. Stream size                              : 5.15 GiB (84%)
  32. Title                                    : szlcug@HDSky
  33. Writing library                          : x265 - H.265/HEVC codec
  34. Default                                  : Yes
  35. Forced                                   : No
  36. Audio
  37. ID                                       : 2
  38. Format                                   : DTS
  39. Format/Info                              : Digital Theater Systems
  40. Codec ID                                 : A_DTS
  41. Duration                                 : 1 h 30 min
  42. Bit rate mode                            : Constant
  43. Bit rate                                 : 1 509 kb/s
  44. Channel(s)                               : 6 channels
  45. Channel layout                           : C L R Ls Rs LFE
  46. Sampling rate                            : 48.0 kHz
  47. Frame rate                               : 93.750 FPS (512 SPF)
  48. Bit depth                                : 24 bits
  49. Compression mode                         : Lossy
  50. Stream size                              : 972 MiB (16%)
  51. Title                                    : Mandarin
  52. Language                                 : Chinese
  53. Default                                  : Yes
  54. Forced                                   : No
  55. Text #1
  56. ID                                       : 3
  57. Format                                   : PGS
  58. Muxing mode                              : zlib
  59. Codec ID                                 : S_HDMV/PGS
  60. Codec ID/Info                            : Picture based subtitle format used on BDs/HD-DVDs
  61. Duration                                 : 1 h 23 min
  62. Bit rate                                 : 43.2 kb/s
  63. Count of elements                        : 3251
  64. Stream size                              : 25.9 MiB (0%)
  65. Title                                    : CHS
  66. Language                                 : Chinese
  67. Default                                  : Yes
  68. Forced                                   : No
  69. Text #2
  70. ID                                       : 4
  71. Format                                   : PGS
  72. Muxing mode                              : zlib
  73. Codec ID                                 : S_HDMV/PGS
  74. Codec ID/Info                            : Picture based subtitle format used on BDs/HD-DVDs
  75. Duration                                 : 1 h 23 min
  76. Bit rate                                 : 52.2 kb/s
  77. Count of elements                        : 3273
  78. Stream size                              : 31.3 MiB (0%)
  79. Title                                    : ENG
  80. Language                                 : English
  81. Default                                  : Yes
  82. Forced                                   : No
  83. Menu
  84. 00:00:00.000                             : en:第 01 章
  85. 00:07:22.956                             : en:第 02 章
  86. 00:14:43.081                             : en:第 03 章
  87. 00:21:47.663                             : en:第 04 章
  88. 00:30:42.538                             : en:第 05 章
  89. 00:35:27.541                             : en:第 06 章
  90. 00:44:49.958                             : en:第 07 章
  91. 00:52:45.500                             : en:第 08 章
  92. 00:58:07.375                             : en:第 09 章
  93. 01:07:20.916                             : en:第 10 章
  94. 01:14:25.541                             : en:第 11 章
  95. 01:23:06.500                             : en:第 12 章





此处一般会放置磁力链或种子下载链接,不过此链接需要注册会员才能看到,点击“立即注册”
磁力链下载【下载链接仅对注册会员开放,登陆后可见】
BT9527电影天堂 1、BT9527电影天堂提供的BT文件均来源于互联网抓取,只供网友学习交流、技术提升使用。
2、我们遵守BitTorrent点对点协议原则,任何版权问题请联系原资源发布商,我们不处理任何版权纠纷,谢谢!如有争议请联系邮箱:BT9527#hotmail.com(#换成@)
3、如果您发现某页面或地址有错误,请联系站长邮箱BT9527#hotmail.com(#换成@),我们会尽快处理。您的热心是对BT9527电影天堂最大的支持。
4、本站建议去正规影院观看电影以支持电影行业发展。
最新回复 (0)

你可以在 登录 or 注册 后,对此帖发表评论!

返回
发新帖