叶问宗师觉醒[国语配音].Ip.Man.The.Awakening.2021.BluRay.1080p.DTS-HDMA5.1.x264-CTRLHD 8.54GB

版主小s 17天前 47

✔资源类型:BD-1080P   ✔电影年份:2021   ✔电影地区:大陆   ✔电影分类:动作

◎译  名 叶问宗师觉醒 / 叶问之宗师觉醒
◎年  代 2021
◎产  地 中国大陆
◎类  别 动作 / 武侠 / 古装
◎语  言 汉语普通话
◎上映日期 2021-09-16(中国大陆)
◎IMDb链接 https://www.imdb.com/title//
◎豆瓣链接 https://movie.douban.com/subject/35067572/
◎片  长 76分钟
◎导  演 李希杰 Adam (id:1431976)
       张著麟 Zhulin Zhang (id:1376600)
◎编  剧 方岚 Lan Fang (id:1394055)
       刘巴音 Bayin Liu (id:1413905)
◎演  员 谢苗 Miu Tse (id:1314627)
       陈冠英 Guanying Chen (id:1419580)
       华栖龙 Sergio Deieso (id:1364611)
       侯桐江 Tongjiang Hou (id:1326724)

◎简  介
  在香港读书的少年叶问,意外卷入英国斯塔克集团绑架中国女人走私到海外的人口贩卖大案,叶问挺身而出怒打洋人,三战英国巴顿勇士,以咏春捍卫被践踏的国人尊严。
  1. ##### MediaInfo ######
  2. General
  3. Unique ID                                : 123542253568804281598557926094415647766 (0x5CF15F5FBBB8FEB859641A7BB1C8D416)
  4. Complete name                            : Ip.Man.The.Awakening.2021.BluRay.1080p.DTS-HDMA5.1.x264-CTRLHD.mkv
  5. Format                                   : Matroska
  6. Format version                           : Version 4
  7. File size                                : 8.54 GiB
  8. Duration                                 : 1 h 19 min
  9. Overall bit rate mode                    : Variable
  10. Overall bit rate                         : 15.3 Mb/s
  11. Encoded date                             : UTC 2022-06-12 03:57:16
  12. Writing application                      : mkvmerge v62.0.0 ('Apollo') 64-bit
  13. Writing library                          : libebml v1.4.2 + libmatroska v1.6.4
  14. Video
  15. ID                                       : 1
  16. Format                                   : AVC
  17. Format/Info                              : Advanced Video Codec
  18. Format profile                           : High@L4.1
  19. Format settings                          : CABAC / 4 Ref Frames
  20. Format settings, CABAC                   : Yes
  21. Format settings, Reference frames        : 4 frames
  22. Codec ID                                 : V_MPEG4/ISO/AVC
  23. Duration                                 : 1 h 19 min
  24. Bit rate                                 : 12.9 Mb/s
  25. Width                                    : 1 912 pixels
  26. Height                                   : 816 pixels
  27. Display aspect ratio                     : 2.35:1
  28. Frame rate mode                          : Constant
  29. Frame rate                               : 24.000 FPS
  30. Color space                              : YUV
  31. Chroma subsampling                       : 4:2:0
  32. Bit depth                                : 8 bits
  33. Scan type                                : Progressive
  34. Bits/(Pixel*Frame)                       : 0.345
  35. Stream size                              : 7.19 GiB (84%)
  36. Writing library                          : x264 core 157 r2867+150 7e91e0e t_mod_Custom_2 [8-bit@all X86_64]
  37. Encoding settings                        : cabac=1 / ref=4 / deblock=1:-3:-3 / analyse=0x3:0x133 / me=umh / subme=11 / psy=1 / fade_compensate=0.00 / psy_rd=0.90:0.10 / mixed_ref=1 / me_range=64 / chroma_me=1 / trellis=2 / 8x8dct=1 / cqm=0 / deadzone=21,11 / fast_pskip=0 / chroma_qp_offset=-4 / threads=25 / lookahead_threads=4 / sliced_threads=0 / nr=0 / decimate=1 / interlaced=0 / NTMzNTQ= / bluray_compat=0 / constrained_intra=0 / fgo=0 / bframes=8 / b_pyramid=2 / b_adapt=2 / b_bias=0 / direct=3 / weightb=1 / open_gop=0 / weightp=2 / keyint=250 / keyint_min=24 / NTMzNTQ=uuDQuD2mJt9fsCf / scenecut=40 / intra_refresh=0 / rc_lookahead=60 / rc=crf / mbtree=0 / crf=18.0000 / qcomp=0.70 / qpmin=0:0:0 / qpmax=69:69:69 / qpstep=4 / vbv_maxrate=35000 / vbv_bufsize=35000 / crf_max=0.0 / nal_hrd=none / filler=0 / NTMzNTQ=LmsMAP37EqsCpk / ip_ratio=1.40 / pb_ratio=1.30 / aq=3:1.00 / aq-sensitivity=10.00 / aq-factor=1.00:1.00:1.00 / aq2=0 / aq3=0
  38. Language                                 : Chinese
  39. Default                                  : Yes
  40. Forced                                   : No
  41. Audio
  42. ID                                       : 2
  43. Format                                   : DTS XLL
  44. Format/Info                              : Digital Theater Systems
  45. Commercial name                          : DTS-HD Master Audio
  46. Codec ID                                 : A_DTS
  47. Duration                                 : 1 h 19 min
  48. Bit rate mode                            : Variable
  49. Bit rate                                 : 2 402 kb/s
  50. Channel(s)                               : 6 channels
  51. Channel layout                           : C L R Ls Rs LFE
  52. Sampling rate                            : 48.0 kHz
  53. Frame rate                               : 93.750 FPS (512 SPF)
  54. Bit depth                                : 16 bits
  55. Compression mode                         : Lossless
  56. Stream size                              : 1.34 GiB (16%)
  57. Language                                 : Chinese
  58. Default                                  : Yes
  59. Forced                                   : No
  60. Text
  61. ID                                       : 3
  62. Format                                   : PGS
  63. Muxing mode                              : zlib
  64. Codec ID                                 : S_HDMV/PGS
  65. Codec ID/Info                            : Picture based subtitle format used on BDs/HD-DVDs
  66. Duration                                 : 1 h 16 min
  67. Bit rate                                 : 21.3 kb/s
  68. Count of elements                        : 1639
  69. Stream size                              : 11.6 MiB (0%)
  70. Language                                 : English
  71. Default                                  : Yes
  72. Forced                                   : No
  73. Menu
  74. 00:00:00.000                             : en:第 01 章
  75. 00:10:53.417                             : en:第 02 章
  76. 00:16:06.583                             : en:第 03 章
  77. 00:25:41.208                             : en:第 04 章
  78. 00:33:23.292                             : en:第 05 章
  79. 00:42:23.625                             : en:第 06 章
  80. 00:52:15.833                             : en:第 07 章
  81. 01:04:36.833                             : en:第 08 章





此处一般会放置磁力链或种子下载链接,不过此链接需要注册会员才能看到,点击“立即注册”
磁力链下载【下载链接仅对注册会员开放,登陆后可见】
BT9527电影天堂 1、BT9527电影天堂提供的BT文件均来源于互联网抓取,只供网友学习交流、技术提升使用。
2、我们遵守BitTorrent点对点协议原则,任何版权问题请联系原资源发布商,我们不处理任何版权纠纷,谢谢!如有争议请联系邮箱:BT9527#hotmail.com(#换成@)
3、如果您发现某页面或地址有错误,请联系站长邮箱BT9527#hotmail.com(#换成@),我们会尽快处理。您的热心是对BT9527电影天堂最大的支持。
4、本站建议去正规影院观看电影以支持电影行业发展。
最新回复 (0)

你可以在 登录 or 注册 后,对此帖发表评论!

返回
发新帖