我和我的父辈[国语配音/中文字幕].My.Country.My.Parents.2021.Bluray.1080p.TrueHD5.1.x264-CTRLHD 17.66GB

版主小s 21天前 42

✔资源类型:BD-1080P   ✔电影年份:2021   ✔电影地区:大陆   ✔电影分类:剧情

◎译  名 我和我的父辈 / My Country, My Parents
◎年  代 2021
◎产  地 中国大陆
◎类  别 剧情
◎语  言 汉语普通话
◎上映日期 2021-09-30(中国大陆)
◎IMDb链接 https://www.imdb.com/title/tt15465312/
◎豆瓣评分 6.5/10 (231653人评价)
◎豆瓣链接 https://movie.douban.com/subject/35294995/
◎片  长 156分钟
◎导  演 吴京 Jing Wu (id:1000525)
       章子怡 Ziyi Zhang (id:1041014)
       徐峥 Zheng Xu (id:1274297)
       沈腾 Teng Shen (id:1325700)
◎编  剧 俞白眉 Baimei Yu (id:1316617)
       张彦 Yan Zhang (id:1374426)
       李媛 Yuan Li (id:1359882)
       何可可 Keke He (id:1339571)
       徐峥 Zheng Xu (id:1274297)
       华玮琳 Weilin Hua (id:1462210)
       林炳宝 Bingbao Lin (id:1345373)
◎演  员 吴京 Jing Wu (id:1000525)
       章子怡 Ziyi Zhang (id:1041014)
       徐峥 Zheng Xu (id:1274297)
       沈腾 Teng Shen (id:1325700)
       吴磊 Leo Wu (id:1276150)
       黄轩 Xuan Huang (id:1276105)
       袁近辉 Jinhui Yuan (id:1386644)
       任思诺  (id:1461313)
       韩昊霖 Haolin Han (id:1396506)
       宋佳 Jia Song (id:1042341)
       马丽 Li Ma (id:1319032)
       洪烈 Lie Hong (id:1461702)
       张天爱 Tian'ai Zhang (id:1353578)
       李光洁 Guangjie Li (id:1275178)
       海清 Qing Hai (id:1272245)
       陈道明 Daoming Chen (id:1045565)
       彭昱畅 Yuchang Peng (id:1354775)
       欧豪 Oho Ou (id:1337644)
       贾冰 Bing Jia (id:1367925)
       辣目洋子 Jackie Li (id:1381644)
       艾伦 Allen (id:1350408)
       常远 Yuan Chang (id:1327084)
       余皑磊 Ailei Yu (id:1313809)
       魏晨 Vision Wei (id:1035594)
       陶虹 Hong Tao (id:1015199)
       倪虹洁 Hongjie Ni (id:1274649)
       张雨绮 Yuqi Zhang (id:1274494)
       焦圣祥 Shengxiang Jiao (id:1460827)
       樊雨洁 Yujie Fan (id:1420308)
       张建亚 Jianya Zhang (id:1276057)
       张芝华 Zhihua Zhang (id:1315113)
       张国强 Guoqiang Zhang (id:1274258)
       宁理 Li Ning (id:1327193)
       胡可 Ke Hu (id:1274939)
       沙溢 Yi Sha (id:1274648)
       马书良 Shuliang Ma (id:1313512)
       曹可凡 Kefan Cao (id:1314007)
       万茜 Qian Wan (id:1315477)
       祖峰 Feng Zu (id:1313650)
       张艺谋 Yimou Zhang (id:1054398)
       李雪健 Xuejian Li (id:1274233)
       张小斐 Xiaofei Zhang (id:1351014)
       杜江 Jiang Du (id:1322949)
       李乃文 Naiwen Li (id:1274530)
       耿乐 Le Geng (id:1274576)
       吴昊宸 Haochen Wu (id:1357212)
       白那日苏 Narisu Bai (id:1390544)
       江水 Shui Jiang (id:1316372)
       逯长恩 Chang'en Lu (id:1325615)
       张恒瑞 Hengrui Zhang (id:1411489)
       阿楠 A  Nan (id:1383483)
       吴昱翰 Yuhan Wu (id:1313050)
       周庆昀 Qingyun Zhou (id:1461704)
       王成思 Chengsi Wang (id:1383525)
       宋阳 Yang Song (id:1350407)
       李海银 Haiyin Li (id:1407469)
       龚毅星 Yixing Gong (id:1451970)
       张云淏 Yunhao Zhang (id:1460987)
       史济源 Jiyuan Shi (id:1461887)
       朱倬 Zhuo Zhu (id:1467942)
       焦宏奋 Hongfen Jiao (id:1412277)
       傅若清 Ruoqing Fu (id:1417588)
       黄建新 Jianxin Huang (id:1019896)
       向和 He Xiang  (id:1462202)
       刘开珞 Kailuo Liu (id:1446138)
       梁颖 Ying Liang (id:1422367)
       田甜 Tian Tian (id:1384306)
       刘瑞芳 Ruifang Liu (id:1396881)
       马驰 Chi Ma (id:1398260)
       邓萌 Meng Deng (id:1460231)
       陶鹃瑜 Juanyu Tao (id:1446115)
       章慧霞 Huixia Zhang (id:1446116)
       许建海 Jianhai Xu (id:1384186)
       张博 Bo Zhang (id:1450637)
       孟钧 Jun Meng (id:1403837)
       王中磊 Zhonglei Wang (id:1276037)
       彭鸣宇 Mingyu Peng (id:1446113)
       李昕 Xin Li (id:1453817)
       蒋德富 Defu Jiang (id:1423660)
       李宁 Ning Li (id:1453841)
       陈妍兵  (id:1462203)
       吴京 Jing Wu (id:1000525)
       于飞 Fei Yu (id:1445404)
       张镒麟 Yilin Zhang (id:1402439)
       陈卫骏  (id:1462204)
       彭飞 Fei Peng (id:1404313)
       王菲 Faye Wong (id:1004858)
       雷佳 Jia Lei (id:1355986)
       黎耀辉 Yiu-Fai Lai (id:1289265)
       余静萍 Ching Ping Yu (id:1363692)
       曹郁 Yu Cao (id:1304904)
       孙明 Ming Sun (id:1305119)
       张嘉辉 Ka-fai Cheung (id:1280620)
       李点石 Dianshi Li (id:1365736)
       周肖林 Xiaolin Zhou (id:1365738)
       檀向媛 Xiang-Yuan Tan (id:1365740)
       霍廷霄 Tingxiao Huo (id:1287179)
       林潮翔 Chaoxiang Lin (id:1290063)
       梁鸿鹄 Honghu Liang (id:1410275)
       李健威 Kin-wai Lee (id:1326655)
       杨丹 Dan Yang (id:1419354)
       刘晓莉 Xiaoli Liu (id:1382701)
       雷舒羽  (id:1462205)
       吴里璐 Dora Ng (id:1289270)
       王丹戎 Danrong Wang (id:1276106)
       赵楠 Nan Zhao (id:1325307)
       姚骐  (id:1462206)
       黄云峰  (id:1462207)
       武世杰 Shijie Wu (id:1446410)
       李赓  (id:1462208)
       袁和平 Woo-ping Yuen (id:1275026)
       罗礼贤 Bruce Law (id:1289542)

◎简  介
  继2019年《我和我的祖国》、2020年《我和我的家乡》,国庆三部曲之《我和我的父辈》接棒定档2021年国庆。由吴京、章子怡、徐峥、沈腾导演,“中国电影追梦人”再次集结,以革命、建设、改革开放和新时代为历史坐标, 通过“家与国”的视角描写几代父辈的奋斗经历,讲述中国人的血脉相连和精神传承,再现中国人努力拼搏的时代记忆。
  1. ##### MediaInfo ######
  2. General
  3. Unique ID                                : 126357311092043352994906063066432384584 (0x5F0F886CF325E625FBFB19642C15AE48)
  4. Complete name                            : My.Country.My.Parents.2021.Bluray.1080p.TrueHD5.1.x264-CTRLHD.mkv
  5. Format                                   : Matroska
  6. Format version                           : Version 4
  7. File size                                : 17.7 GiB
  8. Duration                                 : 2 h 38 min
  9. Overall bit rate mode                    : Variable
  10. Overall bit rate                         : 16.0 Mb/s
  11. Encoded date                             : UTC 2022-06-11 22:45:45
  12. Writing application                      : mkvmerge v62.0.0 ('Apollo') 64-bit
  13. Writing library                          : libebml v1.4.2 + libmatroska v1.6.4
  14. Video
  15. ID                                       : 1
  16. Format                                   : AVC
  17. Format/Info                              : Advanced Video Codec
  18. Format profile                           : High@L4.1
  19. Format settings                          : CABAC / 4 Ref Frames
  20. Format settings, CABAC                   : Yes
  21. Format settings, Reference frames        : 4 frames
  22. Codec ID                                 : V_MPEG4/ISO/AVC
  23. Duration                                 : 2 h 38 min
  24. Bit rate                                 : 13.1 Mb/s
  25. Width                                    : 1 920 pixels
  26. Height                                   : 804 pixels
  27. Display aspect ratio                     : 2.40:1
  28. Frame rate mode                          : Constant
  29. Frame rate                               : 24.000 FPS
  30. Color space                              : YUV
  31. Chroma subsampling                       : 4:2:0
  32. Bit depth                                : 8 bits
  33. Scan type                                : Progressive
  34. Bits/(Pixel*Frame)                       : 0.353
  35. Stream size                              : 14.5 GiB (82%)
  36. Writing library                          : x264 core 157 r2867+150 7e91e0e t_mod_Custom_2 [8-bit@all X86_64]
  37. Encoding settings                        : cabac=1 / ref=4 / deblock=1:-3:-3 / analyse=0x3:0x133 / me=umh / subme=11 / psy=1 / fade_compensate=0.00 / psy_rd=0.90:0.10 / mixed_ref=1 / me_range=64 / chroma_me=1 / trellis=2 / 8x8dct=1 / cqm=0 / deadzone=21,11 / fast_pskip=0 / chroma_qp_offset=-4 / threads=25 / lookahead_threads=4 / sliced_threads=0 / nr=0 / decimate=1 / interlaced=0 / NTMzNTQ= / bluray_compat=0 / constrained_intra=0 / fgo=0 / bframes=8 / b_pyramid=2 / b_adapt=2 / b_bias=0 / direct=3 / weightb=1 / open_gop=0 / weightp=2 / keyint=250 / keyint_min=24 / NTMzNTQ=uuDQuD2mJt9fsCf / scenecut=40 / intra_refresh=0 / rc_lookahead=60 / rc=crf / mbtree=0 / crf=16.5000 / qcomp=0.70 / qpmin=0:0:0 / qpmax=69:69:69 / qpstep=4 / vbv_maxrate=35000 / vbv_bufsize=35000 / crf_max=0.0 / nal_hrd=none / filler=0 / NTMzNTQ=LmsMAP37EqsCpk / ip_ratio=1.40 / pb_ratio=1.30 / aq=3:1.00 / aq-sensitivity=10.00 / aq-factor=1.00:1.00:1.00 / aq2=0 / aq3=0
  38. Default                                  : Yes
  39. Forced                                   : No
  40. Audio
  41. ID                                       : 2
  42. Format                                   : MLP FBA
  43. Format/Info                              : Meridian Lossless Packing FBA
  44. Commercial name                          : Dolby TrueHD
  45. Codec ID                                 : A_TRUEHD
  46. Duration                                 : 2 h 38 min
  47. Bit rate mode                            : Variable
  48. Bit rate                                 : 2 792 kb/s
  49. Maximum bit rate                         : 4 368 kb/s
  50. Channel(s)                               : 6 channels
  51. Channel layout                           : L R C LFE Ls Rs
  52. Sampling rate                            : 96.0 kHz
  53. Frame rate                               : 1 200.000 FPS (80 SPF)
  54. Compression mode                         : Lossless
  55. Stream size                              : 3.08 GiB (17%)
  56. Language                                 : Chinese
  57. Default                                  : Yes
  58. Forced                                   : No
  59. Text #1
  60. ID                                       : 3
  61. Format                                   : PGS
  62. Muxing mode                              : zlib
  63. Codec ID                                 : S_HDMV/PGS
  64. Codec ID/Info                            : Picture based subtitle format used on BDs/HD-DVDs
  65. Duration                                 : 2 h 32 min
  66. Bit rate                                 : 25.8 kb/s
  67. Count of elements                        : 3421
  68. Stream size                              : 28.1 MiB (0%)
  69. Language                                 : Chinese
  70. Default                                  : Yes
  71. Forced                                   : No
  72. Text #2
  73. ID                                       : 4
  74. Format                                   : PGS
  75. Muxing mode                              : zlib
  76. Codec ID                                 : S_HDMV/PGS
  77. Codec ID/Info                            : Picture based subtitle format used on BDs/HD-DVDs
  78. Duration                                 : 2 h 32 min
  79. Bit rate                                 : 27.8 kb/s
  80. Count of elements                        : 3421
  81. Stream size                              : 30.3 MiB (0%)
  82. Language                                 : Chinese
  83. Default                                  : Yes
  84. Forced                                   : No
  85. Text #3
  86. ID                                       : 5
  87. Format                                   : PGS
  88. Muxing mode                              : zlib
  89. Codec ID                                 : S_HDMV/PGS
  90. Codec ID/Info                            : Picture based subtitle format used on BDs/HD-DVDs
  91. Duration                                 : 2 h 32 min
  92. Bit rate                                 : 33.8 kb/s
  93. Count of elements                        : 3434
  94. Stream size                              : 36.9 MiB (0%)
  95. Language                                 : English
  96. Default                                  : Yes
  97. Forced                                   : No
  98. Menu
  99. 00:00:00.000                             : en:第 01 章
  100. 00:07:35.333                             : en:第 02 章
  101. 00:14:07.083                             : en:第 03 章
  102. 00:22:19.208                             : en:第 04 章
  103. 00:27:45.500                             : en:第 05 章
  104. 00:33:31.833                             : en:第 06 章
  105. 00:37:09.875                             : en:第 07 章
  106. 00:45:53.625                             : en:第 08 章
  107. 00:54:35.000                             : en:第 09 章
  108. 01:02:40.583                             : en:第 10 章
  109. 01:07:26.167                             : en:第 11 章
  110. 01:13:36.208                             : en:第 12 章
  111. 01:17:12.917                             : en:第 13 章
  112. 01:23:29.292                             : en:第 14 章
  113. 01:32:51.042                             : en:第 15 章
  114. 01:38:02.000                             : en:第 16 章
  115. 01:42:03.167                             : en:第 17 章
  116. 01:51:37.708                             : en:第 18 章





此处一般会放置磁力链或种子下载链接,不过此链接需要注册会员才能看到,点击“立即注册”
磁力链下载【下载链接仅对注册会员开放,登陆后可见】
BT9527电影天堂 1、BT9527电影天堂提供的BT文件均来源于互联网抓取,只供网友学习交流、技术提升使用。
2、我们遵守BitTorrent点对点协议原则,任何版权问题请联系原资源发布商,我们不处理任何版权纠纷,谢谢!如有争议请联系邮箱:BT9527#hotmail.com(#换成@)
3、如果您发现某页面或地址有错误,请联系站长邮箱BT9527#hotmail.com(#换成@),我们会尽快处理。您的热心是对BT9527电影天堂最大的支持。
4、本站建议去正规影院观看电影以支持电影行业发展。
最新回复 (0)

你可以在 登录 or 注册 后,对此帖发表评论!

返回
发新帖