我和我的父辈[国语音轨/简繁字幕].My.Country.My.Parents.2021.1080p.BluRay.x264-HomeHD 15.99GB

版主小s 17天前 30

✔资源类型:BD-1080P   ✔电影年份:2021   ✔电影地区:大陆   ✔电影分类:剧情

◎译  名 我和我的父辈 / My Country, My Parents
◎年  代 2021
◎产  地 中国大陆
◎类  别 剧情
◎语  言 汉语普通话
◎上映日期 2021-09-30(中国大陆)
◎IMDb链接 https://www.imdb.com/title/tt15465312/
◎豆瓣评分 6.5/10 (231653人评价)
◎豆瓣链接 https://movie.douban.com/subject/35294995/
◎片  长 156分钟
◎导  演 吴京 Jing Wu (id:1000525)
       章子怡 Ziyi Zhang (id:1041014)
       徐峥 Zheng Xu (id:1274297)
       沈腾 Teng Shen (id:1325700)
◎编  剧 俞白眉 Baimei Yu (id:1316617)
       张彦 Yan Zhang (id:1374426)
       李媛 Yuan Li (id:1359882)
       何可可 Keke He (id:1339571)
       徐峥 Zheng Xu (id:1274297)
       华玮琳 Weilin Hua (id:1462210)
       林炳宝 Bingbao Lin (id:1345373)
◎演  员 吴京 Jing Wu (id:1000525)
       章子怡 Ziyi Zhang (id:1041014)
       徐峥 Zheng Xu (id:1274297)
       沈腾 Teng Shen (id:1325700)
       吴磊 Leo Wu (id:1276150)
       黄轩 Xuan Huang (id:1276105)
       袁近辉 Jinhui Yuan (id:1386644)
       任思诺  (id:1461313)
       韩昊霖 Haolin Han (id:1396506)
       宋佳 Jia Song (id:1042341)
       马丽 Li Ma (id:1319032)
       洪烈 Lie Hong (id:1461702)
       张天爱 Tian'ai Zhang (id:1353578)
       李光洁 Guangjie Li (id:1275178)
       海清 Qing Hai (id:1272245)
       陈道明 Daoming Chen (id:1045565)
       彭昱畅 Yuchang Peng (id:1354775)
       欧豪 Oho Ou (id:1337644)
       贾冰 Bing Jia (id:1367925)
       辣目洋子 Jackie Li (id:1381644)
       艾伦 Allen (id:1350408)
       常远 Yuan Chang (id:1327084)
       余皑磊 Ailei Yu (id:1313809)
       魏晨 Vision Wei (id:1035594)
       陶虹 Hong Tao (id:1015199)
       倪虹洁 Hongjie Ni (id:1274649)
       张雨绮 Yuqi Zhang (id:1274494)
       焦圣祥 Shengxiang Jiao (id:1460827)
       樊雨洁 Yujie Fan (id:1420308)
       张建亚 Jianya Zhang (id:1276057)
       张芝华 Zhihua Zhang (id:1315113)
       张国强 Guoqiang Zhang (id:1274258)
       宁理 Li Ning (id:1327193)
       胡可 Ke Hu (id:1274939)
       沙溢 Yi Sha (id:1274648)
       马书良 Shuliang Ma (id:1313512)
       曹可凡 Kefan Cao (id:1314007)
       万茜 Qian Wan (id:1315477)
       祖峰 Feng Zu (id:1313650)
       张艺谋 Yimou Zhang (id:1054398)
       李雪健 Xuejian Li (id:1274233)
       张小斐 Xiaofei Zhang (id:1351014)
       杜江 Jiang Du (id:1322949)
       李乃文 Naiwen Li (id:1274530)
       耿乐 Le Geng (id:1274576)
       吴昊宸 Haochen Wu (id:1357212)
       白那日苏 Narisu Bai (id:1390544)
       江水 Shui Jiang (id:1316372)
       逯长恩 Chang'en Lu (id:1325615)
       张恒瑞 Hengrui Zhang (id:1411489)
       阿楠 A  Nan (id:1383483)
       吴昱翰 Yuhan Wu (id:1313050)
       周庆昀 Qingyun Zhou (id:1461704)
       王成思 Chengsi Wang (id:1383525)
       宋阳 Yang Song (id:1350407)
       李海银 Haiyin Li (id:1407469)
       龚毅星 Yixing Gong (id:1451970)
       张云淏 Yunhao Zhang (id:1460987)
       史济源 Jiyuan Shi (id:1461887)
       朱倬 Zhuo Zhu (id:1467942)
       焦宏奋 Hongfen Jiao (id:1412277)
       傅若清 Ruoqing Fu (id:1417588)
       黄建新 Jianxin Huang (id:1019896)
       向和 He Xiang  (id:1462202)
       刘开珞 Kailuo Liu (id:1446138)
       梁颖 Ying Liang (id:1422367)
       田甜 Tian Tian (id:1384306)
       刘瑞芳 Ruifang Liu (id:1396881)
       马驰 Chi Ma (id:1398260)
       邓萌 Meng Deng (id:1460231)
       陶鹃瑜 Juanyu Tao (id:1446115)
       章慧霞 Huixia Zhang (id:1446116)
       许建海 Jianhai Xu (id:1384186)
       张博 Bo Zhang (id:1450637)
       孟钧 Jun Meng (id:1403837)
       王中磊 Zhonglei Wang (id:1276037)
       彭鸣宇 Mingyu Peng (id:1446113)
       李昕 Xin Li (id:1453817)
       蒋德富 Defu Jiang (id:1423660)
       李宁 Ning Li (id:1453841)
       陈妍兵  (id:1462203)
       吴京 Jing Wu (id:1000525)
       于飞 Fei Yu (id:1445404)
       张镒麟 Yilin Zhang (id:1402439)
       陈卫骏  (id:1462204)
       彭飞 Fei Peng (id:1404313)
       王菲 Faye Wong (id:1004858)
       雷佳 Jia Lei (id:1355986)
       黎耀辉 Yiu-Fai Lai (id:1289265)
       余静萍 Ching Ping Yu (id:1363692)
       曹郁 Yu Cao (id:1304904)
       孙明 Ming Sun (id:1305119)
       张嘉辉 Ka-fai Cheung (id:1280620)
       李点石 Dianshi Li (id:1365736)
       周肖林 Xiaolin Zhou (id:1365738)
       檀向媛 Xiang-Yuan Tan (id:1365740)
       霍廷霄 Tingxiao Huo (id:1287179)
       林潮翔 Chaoxiang Lin (id:1290063)
       梁鸿鹄 Honghu Liang (id:1410275)
       李健威 Kin-wai Lee (id:1326655)
       杨丹 Dan Yang (id:1419354)
       刘晓莉 Xiaoli Liu (id:1382701)
       雷舒羽  (id:1462205)
       吴里璐 Dora Ng (id:1289270)
       王丹戎 Danrong Wang (id:1276106)
       赵楠 Nan Zhao (id:1325307)
       姚骐  (id:1462206)
       黄云峰  (id:1462207)
       武世杰 Shijie Wu (id:1446410)
       李赓  (id:1462208)
       袁和平 Woo-ping Yuen (id:1275026)
       罗礼贤 Bruce Law (id:1289542)

◎简  介
  继2019年《我和我的祖国》、2020年《我和我的家乡》,国庆三部曲之《我和我的父辈》接棒定档2021年国庆。由吴京、章子怡、徐峥、沈腾导演,“中国电影追梦人”再次集结,以革命、建设、改革开放和新时代为历史坐标, 通过“家与国”的视角描写几代父辈的奋斗经历,讲述中国人的血脉相连和精神传承,再现中国人努力拼搏的时代记忆。
  1. ##### MediaInfo ######
  2. General
  3. Unique ID                                : 219120536950326038102645666864977642552 (0xA4D91492192F06E086A9300175D38438)
  4. Complete name                            : My.Country.My.Parents.2021.1080p.BluRay.x264-HomeHD.mkv
  5. Format                                   : Matroska
  6. Format version                           : Version 1
  7. File size                                : 16.0 GiB
  8. Duration                                 : 2 h 38 min
  9. Overall bit rate                         : 14.5 Mb/s
  10. Encoded date                             : UTC 2022-06-12 08:55:29
  11. Writing application                      : mkvmerge v2.2.0 ('Turn It On Again') built on Mar  4 2008 13:20:25
  12. Writing library                          : libebml v0.7.7 + libmatroska v0.8.1
  13. Attachments                              : MSYH.TTF / MSYH_chscht.ttf / MSYHBD.TTF / tahoma.ttf
  14. Video
  15. ID                                       : 1
  16. Format                                   : AVC
  17. Format/Info                              : Advanced Video Codec
  18. Format profile                           : High@L4.1
  19. Format settings                          : CABAC / 5 Ref Frames
  20. Format settings, CABAC                   : Yes
  21. Format settings, Reference frames        : 5 frames
  22. Codec ID                                 : V_MPEG4/ISO/AVC
  23. Duration                                 : 2 h 38 min
  24. Bit rate                                 : 13.8 Mb/s
  25. Width                                    : 1 920 pixels
  26. Height                                   : 804 pixels
  27. Display aspect ratio                     : 2.40:1
  28. Frame rate mode                          : Constant
  29. Frame rate                               : 24.000 FPS
  30. Color space                              : YUV
  31. Chroma subsampling                       : 4:2:0
  32. Bit depth                                : 8 bits
  33. Scan type                                : Progressive
  34. Bits/(Pixel*Frame)                       : 0.372
  35. Stream size                              : 15.0 GiB (94%)
  36. Writing library                          : x264 core 133 r2334 a3ac64b
  37. Encoding settings                        : cabac=1 / ref=5 / deblock=1:-3:-3 / analyse=0x3:0x113 / me=umh / subme=11 / psy=1 / psy_rd=1.00:0.05 / mixed_ref=1 / me_range=64 / chroma_me=1 / trellis=2 / 8x8dct=1 / cqm=0 / deadzone=21,11 / fast_pskip=1 / chroma_qp_offset=-5 / threads=36 / lookahead_threads=6 / sliced_threads=0 / nr=0 / decimate=0 / interlaced=0 / NTMzNTQ= / bluray_compat=0 / constrained_intra=0 / bframes=8 / b_pyramid=2 / b_adapt=2 / b_bias=0 / direct=3 / weightb=1 / open_gop=0 / weightp=2 / keyint=250 / keyint_min=24 / NTMzNTQ=uuDQuD2mJt9fsCf / scenecut=40 / intra_refresh=0 / rc=2pass / mbtree=0 / bitrate=13800 / ratetol=1.0 / qcomp=0.60 / qpmin=0 / qpmax=69 / qpstep=4 / cplxblur=20.0 / qblur=0.5 / NTMzNTQ=LmsMAP37EqsCpk / ip_ratio=1.40 / pb_ratio=1.30 / aq=1:0.80
  38. Language                                 : English
  39. Default                                  : Yes
  40. Forced                                   : No
  41. Audio
  42. ID                                       : 2
  43. Format                                   : AC-3
  44. Format/Info                              : Audio Coding 3
  45. Commercial name                          : Dolby Digital
  46. Codec ID                                 : A_AC3
  47. Duration                                 : 2 h 38 min
  48. Bit rate mode                            : Constant
  49. Bit rate                                 : 640 kb/s
  50. Channel(s)                               : 6 channels
  51. Channel layout                           : L R C LFE Ls Rs
  52. Sampling rate                            : 48.0 kHz
  53. Frame rate                               : 31.250 FPS (1536 SPF)
  54. Compression mode                         : Lossy
  55. Stream size                              : 723 MiB (4%)
  56. Title                                    : 公映国语
  57. Language                                 : Chinese
  58. Service kind                             : Complete Main
  59. Default                                  : Yes
  60. Forced                                   : No
  61. Text #1
  62. ID                                       : 3
  63. Format                                   : ASS
  64. Codec ID                                 : S_TEXT/ASS
  65. Codec ID/Info                            : Advanced Sub Station Alpha
  66. Compression mode                         : Lossless
  67. Title                                    : chs
  68. Language                                 : Chinese
  69. Default                                  : Yes
  70. Forced                                   : No
  71. Text #2
  72. ID                                       : 4
  73. Format                                   : ASS
  74. Codec ID                                 : S_TEXT/ASS
  75. Codec ID/Info                            : Advanced Sub Station Alpha
  76. Compression mode                         : Lossless
  77. Title                                    : cht
  78. Language                                 : Chinese
  79. Default                                  : No
  80. Forced                                   : No





此处一般会放置磁力链或种子下载链接,不过此链接需要注册会员才能看到,点击“立即注册”
磁力链下载【下载链接仅对注册会员开放,登陆后可见】
BT9527电影天堂 1、BT9527电影天堂提供的BT文件均来源于互联网抓取,只供网友学习交流、技术提升使用。
2、我们遵守BitTorrent点对点协议原则,任何版权问题请联系原资源发布商,我们不处理任何版权纠纷,谢谢!如有争议请联系邮箱:BT9527#hotmail.com(#换成@)
3、如果您发现某页面或地址有错误,请联系站长邮箱BT9527#hotmail.com(#换成@),我们会尽快处理。您的热心是对BT9527电影天堂最大的支持。
4、本站建议去正规影院观看电影以支持电影行业发展。
最新回复 (0)

你可以在 登录 or 注册 后,对此帖发表评论!

返回
发新帖