20世纪少年[共3部合集][粤英日多音轨/简繁英字幕].20th.Century.Boys.1-3.2008-2009.BluRay.1080p.DTS-HD.MA7.1.x265.10bit-ALT 37.25GB

版主小s 21天前 118



◎译  名 20世纪少年 / 20世纪少年 第1章 完结的开始 / 20世纪少年:第一部 降临 / Twentieth Century Boys: Chapter One
◎片  名 20世紀少年 第1章 終わりの始まり
◎年  代 2008
◎产  地 日本
◎类  别 科幻 / 悬疑 / 奇幻 / 冒险
◎语  言 日语 / 泰语 / 英语
◎上映日期 2008-08-30
◎IMDb链接 https://www.imdb.com/title/tt1155705/
◎豆瓣评分 6.9/10 (7753人评价)
◎豆瓣链接 https://movie.douban.com/subject/2359497/
◎片  长 142 分钟
◎导  演 堤幸彦 Yukihiko Tsutsumi (id:1041908)
◎编  剧 福田靖 Yasushi Fukuda (id:1321004)
       长崎尚志 Takashi Nagasaki (id:1434801)
       浦泽直树 Naoki Urasawa (id:1014876)
       渡边雄介 Y?suke Watanabe (id:1321448)
◎演  员 龙雷太 Raita Ry? (id:1145110)
       岩尾万太郎 Mantar? Iwao (id:1109680)
       远藤宪一 Ken'ichi End? (id:1080463)
       柳原晴郎 Bengaru (id:1065424)
       阿藤快 Kai Ato (id:1059254)
       石桥莲司 Renji Ishibashi (id:1054279)
       大塚和彦 Kazuhiko Ohtsuka (id:1471410)
       井浦新 ARATA (id:1050495)
       中村贺津雄 Katsuo Nakamura (id:1048674)
       Dave Spector Dave Spector (id:1159168)
        Yukiko Nakatsubo (id:1239034)
       津田宽治 Kanji Tsuda (id:1054163)
       竹内都子 Miyako Takeuchi (id:1312761)
       研ナオコ Naoko Ken (id:1325580)
       田边修斗 Shuto Tanabe (id:1320976)
       伊藤凌 Ryo Ito (id:1315807)
       平爱梨 Airi Taira (id:1309326)
       藤井郁弥 Fumiya Fujii (id:1284306)
       辻修 Osamu Tsuji (id:1274745)
       石冢英彦 Hidehiko Ishizuka (id:1257313)
       常盘贵子 Takako Tokiwa (id:1045787)
       平山祐介 Yusuke Hirayama (id:1043488)
       片濑那奈 Nana Katase (id:1042271)
       吉行和子 Kazuko Yoshiyuki (id:1025510)
       宇梶刚士 Takashi Ukaji (id:1024153)
       森山未来 Mirai Moriyama (id:1024080)
       唐泽寿明 Toshiaki Karasawa (id:1019420)
       中村正 Tadashi Nakamura (id:1016451)
       石井富子 Tomiko Ishii (id:1015817)
       小日向文世 Fumiyo Kohinata (id:1009219)
       佐佐木藏之介 Kuranosuke Sasaki (id:1006339)
       泷口顺平 Junpei Takiguchi (id:1003703)
       入江雅人 Masato Irie (id:1003239)
       黑木瞳 Hitomi Kuroki (id:1028490)
       光石研 Ken Mitsuishi (id:1029037)
       生濑胜久 Katsuhisa Namase (id:1029321)
       及川光博 Mitsuhiro Oikawa (id:1042261)
       池胁千鹤 Chizuru Ikewaki (id:1042111)
       香川照之 Teruyuki Kagawa (id:1037221)
       竹中直人 Naoto Takenaka (id:1035579)
       洞口依子 Yoriko Douguchi (id:1034012)
       佐野史郎 Shir? Sano (id:1033690)
       田中健 Ken Tanaka (id:1033525)
       藤井隆 Takashi Fujii (id:1033503)
       丰川悦司 Etsushi Toyokawa (id:1032989)
       德井优 Yu Tokui (id:1029376)
       宫迫博之 Hiroyuki Miyasako (id:1001269)

◎简  介
  20世纪末,一种神秘病毒在世界蔓延,感染者莫不血尽身亡。                                       
                                    热爱摇滚乐的远藤贤知(唐泽寿明 饰)经历过叛逆时期,如今年奔三十的他窝在家乡大阪经营一家连锁超市,上层负责人责骂,母亲聒噪,姐姐的孩子神乃哭泣,贤知小心应付,手忙脚乱。在小学同学聚会上,贤知重逢当年好友义常(香川照之 饰)、青蛙仔(宮迫博之 饰)、丸夫(石塚英彦 饰)、福平(佐佐木藏之介)、阿门(宇梶剛士 饰)等人。从他们口中得知,如今社会上正时兴一个神秘的宗教组织,组织领袖自称“朋友”,而近期发生的一些列恐怖事件皆来自贤知众人童年时杜撰的一本“预言之书”。                                       
                                    不久,童年时的好友当机(生濑胜久 饰)自杀身亡,他在死前几天曾寄给贤知一封信,信中提到秘密基地的标志。为弄清真相,贤知和朋友们挖出当年埋在树下的铁盒,找出那本“预言之书”。他们发现,儿时胡编乱造写下的情节正在一一应验。那位“朋友”似乎就是...



  1. 合集文件列表:

  2. 1.20th.Century.Boys.1.2008.BluRay.1080p.2Audio.DTS-HD.MA7.1.x265.10bit-ALT.mkv 15.20GB

  3. 2.20th.Century.Boys.2.2009.BluRay.1080p.DTS-HD.MA5.1.x265.10bit-ALT.mkv 8.21GB

  4. 3.20th.Century.Boys.3.2009.BluRay.1080p.DTS-HD.MA5.1.x265.10bit-ALT.mkv 13.84GB

复制代码





  1. ##### MediaInfo ######
  2. General
  3. Unique ID                                : 226195593752853325452282337211550334904 (0xAA2BAFCD84A10386A326A8A91404FFB8)
  4. Complete name                            : 20th.Century.Boys.1.2008.BluRay.1080p.2Audio.DTS-HD.MA7.1.x265.10bit-ALT.mkv
  5. Format                                   : Matroska
  6. Format version                           : Version 4
  7. File size                                : 15.2 GiB
  8. Duration                                 : 2 h 22 min
  9. Overall bit rate mode                    : Variable
  10. Overall bit rate                         : 15.3 Mb/s
  11. Encoded date                             : UTC 2022-06-06 06:54:10
  12. Writing application                      : mkvmerge v49.0.0 ('Sick Of Losing Soulmates') 64-bit
  13. Writing library                          : libebml v1.4.0 + libmatroska v1.6.1
  14. Video
  15. ID                                       : 1
  16. Format                                   : HEVC
  17. Format/Info                              : High Efficiency Video Coding
  18. Format profile                           : Main 10@L5.1@High
  19. Codec ID                                 : V_MPEGH/ISO/HEVC
  20. Duration                                 : 2 h 22 min
  21. Bit rate                                 : 12.0 Mb/s
  22. Width                                    : 1 920 pixels
  23. Height                                   : 1 038 pixels
  24. Display aspect ratio                     : 1.85:1
  25. Frame rate mode                          : Constant
  26. Frame rate                               : 23.976 (24000/1001/53354) FPS
  27. Color space                              : YUV
  28. Chroma subsampling                       : 4:2:0
  29. Bit depth                                : 10 bits
  30. Bits/(Pixel*Frame)                       : 0.251
  31. Stream size                              : 11.9 GiB (78%)
  32. Title                                    : HEVC, x265Main10@L5.1@High, 24/1.001 fps @ 11979 kbps
  33. Writing library                          : x265 3.5+36-1f2c8da77:[Windows][GCC 11.2.0][64 bit] 10bit
  34. Encoding settings                        : cpuid=533541111039 / frame-threads=4 / numa-pools=20 / wpp / no-pmode / no-pme / no-psnr / no-ssim / log-level=2 / input-csp=1 / input-res=1920x1038 / interlace=0 / total-frames=204648 / level-idc=51 / high-tier=1 / uhd-bd=0 / ref=5 / no-allow-non-conformance / no-repeat-headers / annexb / no-aud / no-eob / no-eos / no-hrd / info / hash=0 / no-temporal-layers / open-gop / min-keyint=24 / keyint=240 / gop-lookahead=0 / bframes=6 / b-adapt=2 / b-pyramid / bframe-bias=0 / rc-lookahead=40 / lookahead-slices=0 / NTMzNTQ=uuDQuD2mJt9fsCf / scenecut=40 / no-hist-scenecut / radl=0 / no-splice / no-intra-refresh / ctu=32 / min-cu-size=8 / no-rect / no-amp / max-tu-size=32 / tu-inter-depth=3 / tu-intra-depth=3 / limit-tu=4 / rdoq-level=2 / dynamic-rd=0.00 / no-ssim-rd / signhide / no-tskip / nr-intra=0 / nr-inter=0 / no-constrained-intra / no-strong-intra-smoothing / max-merge=4 / limit-refs=1 / limit-modes / me=3 / subme=4 / merange=25 / temporal-mvp / no-frame-dup / no-hme / weightp / weightb / no-analyze-src-pics / deblock=-3:-3 / no-sao / no-sao-non-deblock / rd=6 / selective-sao=0 / no-early-skip / rskip / no-fast-intra / no-tskip-fast / no-cu-lossless / b-intra / no-splitrd-skip / rdpenalty=0 / psy-rd=2.00 / psy-rdoq=1.00 / no-rd-refine / no-lossless / cbqpoffs=-2 / crqpoffs=-2 / rc=crf / crf=19.5 / qcomp=0.65 / qpstep=4 / stats-write=0 / stats-read=0 / vbv-maxrate=80000 / vbv-bufsize=80000 / vbv-init=0.9 / min-vbv-fullness=50.0 / max-vbv-fullness=80.0 / crf-max=0.0 / crf-min=0.0 / ipratio=1.40 / pbratio=1.30 / aq-mode=2 / aq-strength=0.85 / cutree / zone-count=0 / no-strict-cbr / qg-size=32 / no-rc-grain / qpmax=69 / qpmin=0 / no-const-vbv / sar=1 / overscan=0 / videoformat=5 / range=0 / colorprim=1 / transfer=1 / colormatrix=1 / chromaloc=0 / display-window=0 / cll=0,0 / min-luma=0 / max-luma=1023 / log2-max-poc-lsb=8 / vui-timing-info / vui-hrd-info / slices=1 / no-opt-qp-pps / no-opt-ref-list-length-pps / no-multi-pass-opt-rps / scenecut-bias=0.05 / hist-threshold=0.03 / no-opt-cu-delta-qp / no-aq-motion / no-hdr10 / no-hdr10-opt / no-dhdr10-opt / no-idr-recovery-sei / analysis-reuse-level=0 / analysis-save-reuse-level=0 / analysis-load-reuse-level=0 / scale-factor=0 / refine-intra=0 / refine-inter=0 / refine-mv=1 / refine-ctu-distortion=0 / no-limit-sao / ctu-info=0 / no-lowpass-dct / refine-analysis-type=0 / copy-pic=1 / max-ausize-factor=1.0 / no-dynamic-refine / no-single-sei / no-hevc-aq / no-svt / no-field / qp-adaptation-range=1.00 / scenecut-aware-qp=0conformance-window-offsets / right=0 / bottom=0 / NTMzNTQ= / decoder-max-rate=0 / no-vbv-live-multi-pass
  35. Language                                 : English
  36. Default                                  : Yes
  37. Forced                                   : No
  38. Color range                              : Limited
  39. Color primaries                          : BT.709
  40. Transfer characteristics                 : BT.709
  41. Matrix coefficients                      : BT.709
  42. Audio #1
  43. ID                                       : 2
  44. Format                                   : DTS XLL
  45. Format/Info                              : Digital Theater Systems
  46. Commercial name                          : DTS-HD Master Audio
  47. Codec ID                                 : A_DTS
  48. Duration                                 : 2 h 22 min
  49. Bit rate mode                            : Variable
  50. Bit rate                                 : 2 563 kb/s
  51. Channel(s)                               : 8 channels
  52. Channel layout                           : C L R LFE Lb Rb Lss Rss
  53. Sampling rate                            : 48.0 kHz
  54. Frame rate                               : 93.750 FPS (512 SPF)
  55. Bit depth                                : 16 bits
  56. Compression mode                         : Lossless
  57. Stream size                              : 2.55 GiB (17%)
  58. Title                                    : Japanese DTS-HD Master Audio 7.1 @ 2564 kbps
  59. Language                                 : Japanese
  60. Default                                  : Yes
  61. Forced                                   : No
  62. Audio #2
  63. ID                                       : 3
  64. ID in the original source medium         : 4355 (0x1103)
  65. Format                                   : AC-3
  66. Format/Info                              : Audio Coding 3
  67. Commercial name                          : Dolby Digital
  68. Codec ID                                 : A_AC3
  69. Duration                                 : 2 h 22 min
  70. Bit rate mode                            : Constant
  71. Bit rate                                 : 640 kb/s
  72. Channel(s)                               : 6 channels
  73. Channel layout                           : L R C LFE Ls Rs
  74. Sampling rate                            : 48.0 kHz
  75. Frame rate                               : 31.250 FPS (1536 SPF)
  76. Compression mode                         : Lossy
  77. Stream size                              : 651 MiB (4%)
  78. Title                                    : Cantonese Dolby Digital Audio 5.1 @ 640 kbps
  79. Language                                 : Chinese
  80. Service kind                             : Complete Main
  81. Default                                  : No
  82. Forced                                   : No
  83. Original source medium                   : Blu-ray
  84. Text #1
  85. ID                                       : 4
  86. ID in the original source medium         : 4610 (0x1202)
  87. Format                                   : PGS
  88. Codec ID                                 : S_HDMV/PGS
  89. Codec ID/Info                            : Picture based subtitle format used on BDs/HD-DVDs
  90. Duration                                 : 2 h 21 min
  91. Bit rate                                 : 56.1 kb/s
  92. Count of elements                        : 2663
  93. Stream size                              : 56.8 MiB (0%)
  94. Title                                    : Eng/SUP
  95. Language                                 : English
  96. Default                                  : No
  97. Forced                                   : No
  98. Original source medium                   : Blu-ray
  99. Text #2
  100. ID                                       : 5
  101. ID in the original source medium         : 4609 (0x1201)
  102. Format                                   : PGS
  103. Codec ID                                 : S_HDMV/PGS
  104. Codec ID/Info                            : Picture based subtitle format used on BDs/HD-DVDs
  105. Duration                                 : 2 h 21 min
  106. Bit rate                                 : 26.9 kb/s
  107. Count of elements                        : 2663
  108. Stream size                              : 27.2 MiB (0%)
  109. Title                                    : Chs/SUP  简体
  110. Language                                 : Chinese
  111. Default                                  : Yes
  112. Forced                                   : No
  113. Original source medium                   : Blu-ray
  114. Text #3
  115. ID                                       : 6
  116. ID in the original source medium         : 4608 (0x1200)
  117. Format                                   : PGS
  118. Codec ID                                 : S_HDMV/PGS
  119. Codec ID/Info                            : Picture based subtitle format used on BDs/HD-DVDs
  120. Duration                                 : 2 h 21 min
  121. Bit rate                                 : 30.0 kb/s
  122. Count of elements                        : 2663
  123. Stream size                              : 30.4 MiB (0%)
  124. Title                                    : Cht/SUP  繁体
  125. Language                                 : Chinese
  126. Default                                  : No
  127. Forced                                   : No
  128. Original source medium                   : Blu-ray
  129. Menu
  130. 00:00:00.000                             : en:Chapter 01
  131. 00:02:20.431                             : en:Chapter 02
  132. 00:06:58.626                             : en:Chapter 03
  133. 00:10:26.584                             : en:Chapter 04
  134. 00:13:01.238                             : en:Chapter 05
  135. 00:18:10.380                             : en:Chapter 06
  136. 00:22:08.618                             : en:Chapter 07
  137. 00:26:11.111                             : en:Chapter 08
  138. 00:29:14.836                             : en:Chapter 09
  139. 00:32:35.411                             : en:Chapter 10
  140. 00:36:55.213                             : en:Chapter 11
  141. 00:40:46.444                             : en:Chapter 12
  142. 00:45:53.584                             : en:Chapter 13
  143. 00:50:19.725                             : en:Chapter 14
  144. 00:54:28.765                             : en:Chapter 15
  145. 01:01:23.513                             : en:Chapter 16
  146. 01:07:50.900                             : en:Chapter 17
  147. 01:11:34.248                             : en:Chapter 18
  148. 01:15:16.678                             : en:Chapter 19
  149. 01:22:07.672                             : en:Chapter 20
  150. 01:30:11.906                             : en:Chapter 21
  151. 01:35:45.322                             : en:Chapter 22
  152. 01:43:04.803                             : en:Chapter 23
  153. 01:46:01.313                             : en:Chapter 24
  154. 01:48:53.360                             : en:Chapter 25
  155. 01:54:11.886                             : en:Chapter 26
  156. 01:57:43.056                             : en:Chapter 27
  157. 02:02:46.984                             : en:Chapter 28
  158. 02:05:45.120                             : en:Chapter 29
  159. 02:09:18.542                             : en:Chapter 30
  160. 02:14:58.090                             : en:Chapter 31
  161. 02:21:24.100                             : en:Chapter 32
复制代码




TAGS 奇幻 冒险 悬疑 科幻 /

磁力链:
  • magnet:?xt=urn:btih:8922A5FDF7D04D89B39A3968059F85112F6F30AB
上传的附件:
BT9527电影天堂 1、BT9527电影天堂提供的BT文件均来源于互联网抓取,只供网友学习交流、技术提升使用。
2、我们遵守BitTorrent点对点协议原则,任何版权问题请联系原资源发布商,我们不处理任何版权纠纷,谢谢!如有争议请联系邮箱:BT9527#hotmail.com(#换成@)
3、如果您发现某页面或地址有错误,请联系站长邮箱BT9527#hotmail.com(#换成@),我们会尽快处理。您的热心是对BT9527电影天堂最大的支持。
4、本站建议去正规影院观看电影以支持电影行业发展。
最新回复 (0)

你可以在 登录 or 注册 后,对此帖发表评论!

返回
发新帖