北欧人[简繁英字幕].The.Northman.2022.2160p.HDR.UHD.BluRay.TrueHD.7.1.x265-10bit-ENTHD 23.36GB

版主小s 3月前 215

✔资源类型:BD-4K   ✔电影年份:2022   ✔电影地区:欧美   ✔电影分类:剧情

◎译  名 北欧人 / 北方人(台)
◎片  名 The Northman
◎年  代 2022
◎产  地 美国
◎类  别 剧情
◎语  言 英语
◎上映日期 2022-04-15(英国) / 2022-04-22(美国) / 2022-05-13(美国网络)
◎IMDb链接 https://www.imdb.com/title/tt11138512/
◎豆瓣评分 6.4/10 (16529人评价)
◎豆瓣链接 https://movie.douban.com/subject/34861178/
◎片  长 137分钟
◎导  演 罗伯特·艾格斯 Robert Eggers (id:1351393)
◎编  剧 罗伯特·艾格斯 Robert Eggers (id:1351393)
       秀恩·西古尔德森 Sjón Sigurdsson (id:1052018)
◎演  员 亚历山大·斯卡斯加德 Alexander Skarsg?rd (id:1049485)
       妮可·基德曼 Nicole Kidman (id:1054442)
       克拉斯·邦 Claes Bang (id:1067129)
       伊桑·霍克 Ethan Hawke (id:1018984)
       安雅·泰勒-乔伊 Anya Taylor-Joy (id:1354934)
       古斯塔夫·林德 Gustav Lindh (id:1413706)
       艾略特·罗斯 Elliott Rose (id:1470646)
       威廉·达福 Willem Dafoe (id:1010539)
       菲尔·马丁 Phill Martin (id:1470647)
       埃尔达·斯卡 Eldar Skar (id:1360101)
       欧文·弗热瑞 Olwen Fouéré (id:1355887)
       埃德加·阿布拉姆 Edgar Abram (id:1470650)
       杰克·加斯曼 Jack Gassmann (id:1470651)
       英格瓦·埃盖特·西古德松 Ingvar Eggert Siguresson (id:1041279)
       奥斯卡·诺瓦克 Oscar Novak (id:1470648)
       杰克·沃尔什 Jack Walsh (id:1363036)
       比约克 Bj?rk (id:1054628)
       伊恩·怀特 Ian Whyte (id:1183951)
       凯蒂·帕廷森 Katie Pattinson (id:1470649)
       凯特·迪基 Kate Dickie (id:1282399)
       谢默斯·奥哈拉 Seamus O'Hara (id:1453625)
       塔格·墨菲 Tadhg Murphy (id:1308673)
       哈弗波·朱利尔斯·比昂森 Haftór Júlíus Bj?rnsson (id:1347773)
       拉尔夫·伊内森 Ralph Ineson (id:1108378)
       默里·麦克阿瑟 Murray McArthur (id:1117558)
       乔恩·坎普林 Jon Campling (id:1218535)
       迈克尔·舍费尔 Michael Schaefer (id:1355118)
       露易丝·福特 Louise Ford (id:1450155)
        Linda Muir (id:1471352)

◎简  介
  一名年轻的维京王子,为了遭到谋杀的父亲,踏上一场冒险的复仇之路。
  1. ##### MediaInfo ######
  2. General
  3. Unique ID                                : 319055827062886096054215833370965709591 (0xF007EAC8D88AFC5146C12465A02E1317)
  4. Complete name                            : The.Northman.2022.2160p.HDR.UHD.BluRay.TrueHD.7.1.x265-10bit-ENTHD.mkv
  5. Format                                   : Matroska
  6. Format version                           : Version 4
  7. File size                                : 23.4 GiB
  8. Duration                                 : 2 h 16 min
  9. Overall bit rate mode                    : Variable
  10. Overall bit rate                         : 24.4 Mb/s
  11. Movie name                               : The Northman 2022 2160p HDR UHD BluRay TrueHD 7.1 x265-10bit-HDS
  12. Encoded date                             : UTC 2022-06-09 08:02:59
  13. Writing application                      : mkvmerge v67.0.0 ('Under Stars') 64-bit
  14. Writing library                          : libebml v1.4.2 + libmatroska v1.6.4
  15. Video
  16. ID                                       : 1
  17. Format                                   : HEVC
  18. Format/Info                              : High Efficiency Video Coding
  19. Format profile                           : Main 10@L5.1@High
  20. HDR format                               : SMPTE ST 2086, HDR10 compatible
  21. Codec ID                                 : V_MPEGH/ISO/HEVC
  22. Duration                                 : 2 h 16 min
  23. Bit rate                                 : 19.0 Mb/s
  24. Width                                    : 3 840 pixels
  25. Height                                   : 1 920 pixels
  26. Display aspect ratio                     : 2.000
  27. Frame rate mode                          : Constant
  28. Frame rate                               : 23.976 (24000/1001/53354) FPS
  29. Color space                              : YUV
  30. Chroma subsampling                       : 4:2:0
  31. Bit depth                                : 10 bits
  32. Bits/(Pixel*Frame)                       : 0.108
  33. Stream size                              : 18.2 GiB (78%)
  34. Title                                    : @HDSky
  35. Writing library                          : x265 - H.265/HEVC codec
  36. Default                                  : Yes
  37. Forced                                   : No
  38. Color range                              : Limited
  39. Color primaries                          : BT.2020
  40. Transfer characteristics                 : PQ
  41. Matrix coefficients                      : BT.2020 non-constant
  42. Mastering display color primaries        : Display P3
  43. Mastering display luminance              : min: 0.0001 cd/m2, max: 1000 cd/m2
  44. Maximum Content Light Level              : 1000 cd/m2
  45. Maximum Frame-Average Light Level        : 81 cd/m2
  46. Audio #1
  47. ID                                       : 2
  48. Format                                   : MLP FBA 16-ch
  49. Format/Info                              : Meridian Lossless Packing FBA with 16-channel presentation
  50. Commercial name                          : Dolby TrueHD with Dolby Atmos
  51. Codec ID                                 : A_TRUEHD
  52. Duration                                 : 2 h 16 min
  53. Bit rate mode                            : Variable
  54. Bit rate                                 : 4 847 kb/s
  55. Maximum bit rate                         : 7 383 kb/s
  56. Channel(s)                               : 8 channels
  57. Channel layout                           : L R C LFE Ls Rs Lb Rb
  58. Sampling rate                            : 48.0 kHz
  59. Frame rate                               : 1 200.000 FPS (40 SPF)
  60. Compression mode                         : Lossless
  61. Stream size                              : 4.63 GiB (20%)
  62. Title                                    : English
  63. Language                                 : English
  64. Default                                  : Yes
  65. Forced                                   : No
  66. Number of dynamic objects                : 11
  67. Bed channel count                        : 1 channel
  68. Bed channel configuration                : LFE
  69. Audio #2
  70. ID                                       : 3
  71. Format                                   : AC-3
  72. Format/Info                              : Audio Coding 3
  73. Commercial name                          : Dolby Digital
  74. Codec ID                                 : A_AC3
  75. Duration                                 : 2 h 16 min
  76. Bit rate mode                            : Constant
  77. Bit rate                                 : 448 kb/s
  78. Channel(s)                               : 6 channels
  79. Channel layout                           : L R C LFE Ls Rs
  80. Sampling rate                            : 48.0 kHz
  81. Frame rate                               : 31.250 FPS (1536 SPF)
  82. Compression mode                         : Lossy
  83. Stream size                              : 439 MiB (2%)
  84. Service kind                             : Complete Main
  85. Default                                  : Yes
  86. Forced                                   : No
  87. Text #1
  88. ID                                       : 4
  89. Format                                   : PGS
  90. Muxing mode                              : zlib
  91. Codec ID                                 : S_HDMV/PGS
  92. Codec ID/Info                            : Picture based subtitle format used on BDs/HD-DVDs
  93. Duration                                 : 2 h 7 min
  94. Bit rate                                 : 30.2 kb/s
  95. Count of elements                        : 3098
  96. Stream size                              : 27.7 MiB (0%)
  97. Title                                    : ENG
  98. Language                                 : English
  99. Default                                  : Yes
  100. Forced                                   : No
  101. Text #2
  102. ID                                       : 5
  103. Format                                   : PGS
  104. Muxing mode                              : zlib
  105. Codec ID                                 : S_HDMV/PGS
  106. Codec ID/Info                            : Picture based subtitle format used on BDs/HD-DVDs
  107. Duration                                 : 2 h 7 min
  108. Bit rate                                 : 13.1 kb/s
  109. Count of elements                        : 2008
  110. Stream size                              : 11.9 MiB (0%)
  111. Title                                    : CHS
  112. Language                                 : Chinese
  113. Default                                  : Yes
  114. Forced                                   : No
  115. Text #3
  116. ID                                       : 6
  117. Format                                   : PGS
  118. Muxing mode                              : zlib
  119. Codec ID                                 : S_HDMV/PGS
  120. Codec ID/Info                            : Picture based subtitle format used on BDs/HD-DVDs
  121. Duration                                 : 2 h 7 min
  122. Bit rate                                 : 13.5 kb/s
  123. Count of elements                        : 2008
  124. Stream size                              : 12.4 MiB (0%)
  125. Title                                    : CHT
  126. Language                                 : Chinese
  127. Default                                  : Yes
  128. Forced                                   : No
  129. Text #4
  130. ID                                       : 7
  131. Format                                   : PGS
  132. Muxing mode                              : zlib
  133. Codec ID                                 : S_HDMV/PGS
  134. Codec ID/Info                            : Picture based subtitle format used on BDs/HD-DVDs
  135. Duration                                 : 2 h 7 min
  136. Bit rate                                 : 22.2 kb/s
  137. Count of elements                        : 2009
  138. Stream size                              : 20.2 MiB (0%)
  139. Title                                    : CHS&ENG
  140. Language                                 : Chinese
  141. Default                                  : Yes
  142. Forced                                   : No
  143. Text #5
  144. ID                                       : 8
  145. Format                                   : PGS
  146. Muxing mode                              : zlib
  147. Codec ID                                 : S_HDMV/PGS
  148. Codec ID/Info                            : Picture based subtitle format used on BDs/HD-DVDs
  149. Duration                                 : 2 h 7 min
  150. Bit rate                                 : 22.6 kb/s
  151. Count of elements                        : 2009
  152. Stream size                              : 20.6 MiB (0%)
  153. Title                                    : CHT&ENG
  154. Language                                 : Chinese
  155. Default                                  : Yes
  156. Forced                                   : No
  157. Menu
  158. 00:00:00.000                             : en:第 01 章
  159. 00:08:53.992                             : en:第 02 章
  160. 00:15:47.613                             : en:第 03 章
  161. 00:22:04.615                             : en:第 04 章
  162. 00:30:23.697                             : en:第 05 章
  163. 00:39:44.340                             : en:第 06 章
  164. 00:46:18.401                             : en:第 07 章
  165. 00:51:43.267                             : en:第 08 章
  166. 00:58:14.032                             : en:第 09 章
  167. 01:05:22.335                             : en:第 10 章
  168. 01:11:55.019                             : en:第 11 章
  169. 01:16:49.563                             : en:第 12 章
  170. 01:23:36.094                             : en:第 13 章
  171. 01:27:16.690                             : en:第 14 章
  172. 01:35:42.862                             : en:第 15 章
  173. 01:41:02.390                             : en:第 16 章
  174. 01:46:38.225                             : en:第 17 章
  175. 01:55:44.855                             : en:第 18 章
  176. 02:01:06.968                             : en:第 19 章
  177. 02:08:41.255                             : en:第 20 章





此处一般会放置磁力链或种子下载链接,不过此链接需要注册会员才能看到,点击“立即注册”
磁力链下载【下载链接仅对注册会员开放,登陆后可见】
BT9527电影天堂 1、BT9527电影天堂提供的BT文件均来源于互联网抓取,只供网友学习交流、技术提升使用。
2、我们遵守BitTorrent点对点协议原则,任何版权问题请联系原资源发布商,我们不处理任何版权纠纷,谢谢!如有争议请联系邮箱:BT9527#hotmail.com(#换成@)
3、如果您发现某页面或地址有错误,请联系站长邮箱BT9527#hotmail.com(#换成@),我们会尽快处理。您的热心是对BT9527电影天堂最大的支持。
4、本站建议去正规影院观看电影以支持电影行业发展。
最新回复 (0)

你可以在 登录 or 注册 后,对此帖发表评论!

返回