蓝精灵[共3部合集][国粤英多音轨/简繁英字幕].The.Smurfs.1-3.2011-2017.BluRay.1080p.MultiAudio.DTS-HD.MA5.1.x265.10bit-ALT 25.62GB

版主小s 28天前 250



◎译  名 蓝精灵 / 蓝色小精灵(台)
◎片  名 The Smurfs
◎年  代 2011
◎产  地 美国 / 比利时
◎类  别 喜剧 / 动画 / 奇幻
◎语  言 英语
◎上映日期 2011-08-10(中国大陆) / 2011-07-29(美国)
◎IMDb链接 https://www.imdb.com/title/tt0472181/
◎豆瓣评分 7.2/10 (101561人评价)
◎豆瓣链接 https://movie.douban.com/subject/2159331/
◎片  长 103分钟
◎导  演 拉加·高斯内尔 Raja Gosnell (id:1036533)
◎编  剧 J·大卫·斯提姆 J. David Stem (id:1298352)
       戴维·N·韦斯 David N. Weiss (id:1300637)
       佩约 Peyo (id:1009751)
       杰·舒瑞克 Jay Scherick (id:1296851)
       大卫·隆恩 David Ronn (id:1295998)
◎演  员 尼尔·帕特里克·哈里斯 Neil Patrick Harris (id:1017896)
       杰玛·梅斯 Jayma Mays (id:1009237)
       汉克·阿扎利亚 Hank Azaria (id:1044724)
       乔纳森·温特斯 Jonathan Winters (id:1041129)
       凯蒂·派瑞 Katy Perry (id:1041102)
       艾伦·卡明 Alan Cumming (id:1006980)
       乔治·洛佩兹 George Lopez (id:1044900)
       保罗·雷宾斯 Paul Reubens (id:1049545)
       基南·汤普森 Kenan Thompson (id:1044941)
       B·J·诺瓦克 B.J. Novak (id:1022630)
       杰夫·福克斯沃西 Jeff Foxworthy (id:1049876)
       沃尔夫冈·帕克 Wolfgang Puck (id:1131687)
       索菲娅·维加拉 Sofía Vergara (id:1055987)
       安东·叶利钦 Anton Yelchin (id:1053562)
       约翰·奥利弗 John Oliver (id:1173128)
       弗兰克·维尔克 Frank Welker (id:1031825)
       知念侑李 Yuri Chinen (id:1205810)
       何恺鹏 Kaipeng He (id:1422989)
       奥利维亚·巴勒莫 Olivia Palermo (id:1314910)
       汤姆·库里其奥 Tom Colicchio (id:1252084)
       西托·佩雷拉 Heitor Pereira (id:1350525)

◎简  介
  在广袤安宁的原始森林中,快乐的蓝精灵们正在准备一年一度的蓝月亮节。而就在这欢喜忙碌的关头,他们的宿敌——邪恶的巫师格格巫(汉克·阿扎瑞亚 Hank Azaria 饰)和他的宠物阿兹猫闯入了蓝精灵的秘密领地。受到惊吓的蓝精灵四散而逃,其中可怜的笨笨(安东·尤金 Anton Yelchin 配音)则盲打误撞跑进了据说曾经死掉99个蓝精灵的瀑布进去。最终,笨笨连同营救他的蓝爸爸、蓝妹妹、聪聪等卷入了神秘的漩涡,来到了美国纽约的中央花园。在这个完全陌生的世界,他们得到化妆品业的帕特里克(尼尔·帕特里克?哈里斯 Neil Patrick Harris 配音)的帮助。为了返回大森林,蓝精灵们想尽各种办法。与此同时,格格巫和阿兹猫也来到纽约……                                    
                                本片根据比利时漫画家沛优(Peyo)及其夫人共同创作的漫画改编,早年曾被美国引进制作成TV版动画。

◎获奖情况 (共1项)
  第14届美国青少年选择奖 (2012)
  最佳动画片(提名)




  1. 合集文件列表:

  2. 1.Smurfs.The.Lost.Village.2017.MultiAudio.DTS-HD.MA5.1.x265.10bit-ALT.mkv 7.92GB

  3. 2.The.Smurfs.2.2013.3Audio.DTS-HD.MA5.1.x265.10bit-ALT.mkv 7.51GB

  4. 3.The.Smurfs.2011.MultiAudio.DTS-HD.MA5.1.x265.10bit-ALT.mkv 10.19GB

复制代码





  1. ##### MediaInfo ######
  2. General
  3. Unique ID                                : 125439366466453800066818463627344782066 (0x5E5EBE42E5B0F9156EAFE637BA3EA2F2)
  4. Complete name                            : Smurfs.The.Lost.Village.2017.MultiAudio.DTS-HD.MA5.1.x265.10bit-ALT.mkv
  5. Format                                   : Matroska
  6. Format version                           : Version 4
  7. File size                                : 7.92 GiB
  8. Duration                                 : 1 h 29 min
  9. Overall bit rate mode                    : Variable
  10. Overall bit rate                         : 12.6 Mb/s
  11. Encoded date                             : UTC 2020-10-11 02:21:21
  12. Writing application                      : mkvmerge v49.0.0 ('Sick Of Losing Soulmates') 64-bit
  13. Writing library                          : libebml v1.4.0 + libmatroska v1.6.1
  14. Video
  15. ID                                       : 1
  16. Format                                   : HEVC
  17. Format/Info                              : High Efficiency Video Coding
  18. Format profile                           : Main 10@L5.1@High
  19. Codec ID                                 : V_MPEGH/ISO/HEVC
  20. Duration                                 : 1 h 29 min
  21. Bit rate                                 : 7 977 kb/s
  22. Width                                    : 1 920 pixels
  23. Height                                   : 1 038 pixels
  24. Display aspect ratio                     : 1.85:1
  25. Frame rate mode                          : Constant
  26. Frame rate                               : 23.976 (24000/1001/53354) FPS
  27. Color space                              : YUV
  28. Chroma subsampling                       : 4:2:0
  29. Bit depth                                : 10 bits
  30. Bits/(Pixel*Frame)                       : 0.167
  31. Stream size                              : 5.00 GiB (63%)
  32. Title                                    : HEVC, x265Main10@L5.1@High, 24/1.001 fps @ 7976 kbps
  33. Writing library                          : x265 3.4+14-gd419c7152:[Windows][GCC 10.2.0][64 bit] 10bit
  34. Encoding settings                        : cpuid=533541111039 / frame-threads=5 / numa-pools=44,44 / wpp / pmode / pme / no-psnr / no-ssim / log-level=2 / input-csp=1 / input-res=1920x1038 / interlace=0 / total-frames=129144 / level-idc=51 / high-tier=1 / uhd-bd=0 / ref=5 / no-allow-non-conformance / no-repeat-headers / annexb / no-aud / no-hrd / info / hash=0 / no-temporal-layers / open-gop / min-keyint=24 / keyint=240 / gop-lookahead=0 / bframes=6 / b-adapt=2 / b-pyramid / bframe-bias=0 / rc-lookahead=40 / lookahead-slices=0 / NTMzNTQ=uuDQuD2mJt9fsCf / scenecut=40 / hist-scenecut=0 / radl=0 / no-splice / no-intra-refresh / ctu=32 / min-cu-size=8 / no-rect / no-amp / max-tu-size=32 / tu-inter-depth=3 / tu-intra-depth=3 / limit-tu=4 / rdoq-level=2 / dynamic-rd=0.00 / no-ssim-rd / signhide / no-tskip / nr-intra=0 / nr-inter=0 / no-constrained-intra / no-strong-intra-smoothing / max-merge=4 / limit-refs=1 / limit-modes / me=3 / subme=4 / merange=25 / temporal-mvp / no-frame-dup / no-hme / weightp / weightb / no-analyze-src-pics / deblock=-3:-3 / no-sao / no-sao-non-deblock / rd=6 / selective-sao=0 / no-early-skip / rskip / no-fast-intra / no-tskip-fast / no-cu-lossless / b-intra / no-splitrd-skip / rdpenalty=0 / psy-rd=2.00 / psy-rdoq=1.00 / no-rd-refine / no-lossless / cbqpoffs=0 / crqpoffs=0 / rc=crf / crf=17.0 / qcomp=0.65 / qpstep=4 / stats-write=0 / stats-read=0 / vbv-maxrate=80000 / vbv-bufsize=80000 / vbv-init=0.9 / crf-max=0.0 / crf-min=0.0 / ipratio=1.40 / pbratio=1.30 / aq-mode=2 / aq-strength=0.85 / cutree / zone-count=0 / no-strict-cbr / qg-size=32 / no-rc-grain / qpmax=69 / qpmin=0 / no-const-vbv / sar=1 / overscan=0 / videoformat=5 / range=0 / colorprim=1 / transfer=1 / colormatrix=1 / chromaloc=0 / display-window=0 / cll=0,0 / min-luma=0 / max-luma=1023 / log2-max-poc-lsb=8 / vui-timing-info / vui-hrd-info / slices=1 / no-opt-qp-pps / no-opt-ref-list-length-pps / no-multi-pass-opt-rps / scenecut-bias=0.05 / hist-threshold=0.03 / no-opt-cu-delta-qp / no-aq-motion / no-hdr10 / no-hdr10-opt / no-dhdr10-opt / no-idr-recovery-sei / analysis-reuse-level=0 / analysis-save-reuse-level=0 / analysis-load-reuse-level=0 / scale-factor=0 / refine-intra=0 / refine-inter=0 / refine-mv=1 / refine-ctu-distortion=0 / no-limit-sao / ctu-info=0 / no-lowpass-dct / refine-analysis-type=0 / copy-pic=1 / max-ausize-factor=1.0 / no-dynamic-refine / no-single-sei / no-hevc-aq / no-svt / no-field / qp-adaptation-range=1.00 / no-scenecut-aware-qpconformance-window-offsets / right=0 / bottom=0 / NTMzNTQ= / decoder-max-rate=0
  35. Language                                 : English
  36. Default                                  : Yes
  37. Forced                                   : No
  38. Color range                              : Limited
  39. Color primaries                          : BT.709
  40. Transfer characteristics                 : BT.709
  41. Matrix coefficients                      : BT.709
  42. Audio #1
  43. ID                                       : 2
  44. Format                                   : DTS XLL
  45. Format/Info                              : Digital Theater Systems
  46. Commercial name                          : DTS-HD Master Audio
  47. Codec ID                                 : A_DTS
  48. Duration                                 : 1 h 29 min
  49. Bit rate mode                            : Variable
  50. Bit rate                                 : 2 353 kb/s
  51. Channel(s)                               : 6 channels
  52. Channel layout                           : C L R Ls Rs LFE
  53. Sampling rate                            : 48.0 kHz
  54. Frame rate                               : 93.750 FPS (512 SPF)
  55. Bit depth                                : 16 bits
  56. Compression mode                         : Lossless
  57. Stream size                              : 1.48 GiB (19%)
  58. Title                                    : English DTS-HD Master Audio 5.1 @ 2353 kbps
  59. Language                                 : English
  60. Default                                  : Yes
  61. Forced                                   : No
  62. Audio #2
  63. ID                                       : 3
  64. Format                                   : AC-3
  65. Format/Info                              : Audio Coding 3
  66. Commercial name                          : Dolby Digital
  67. Codec ID                                 : A_AC3
  68. Duration                                 : 1 h 29 min
  69. Bit rate mode                            : Constant
  70. Bit rate                                 : 640 kb/s
  71. Channel(s)                               : 6 channels
  72. Channel layout                           : L R C LFE Ls Rs
  73. Sampling rate                            : 48.0 kHz
  74. Frame rate                               : 31.250 FPS (1536 SPF)
  75. Compression mode                         : Lossy
  76. Stream size                              : 411 MiB (5%)
  77. Title                                    : Mandarin Dolby Digital Audio 5.1 @ 640 kbps  国语
  78. Language                                 : Chinese
  79. Service kind                             : Complete Main
  80. Default                                  : No
  81. Forced                                   : No
  82. Audio #3
  83. ID                                       : 4
  84. Format                                   : AC-3
  85. Format/Info                              : Audio Coding 3
  86. Commercial name                          : Dolby Digital
  87. Codec ID                                 : A_AC3
  88. Duration                                 : 1 h 29 min
  89. Bit rate mode                            : Constant
  90. Bit rate                                 : 640 kb/s
  91. Channel(s)                               : 6 channels
  92. Channel layout                           : L R C LFE Ls Rs
  93. Sampling rate                            : 48.0 kHz
  94. Frame rate                               : 31.250 FPS (1536 SPF)
  95. Compression mode                         : Lossy
  96. Stream size                              : 411 MiB (5%)
  97. Title                                    : Cantonese Dolby Digital Audio 5.1 @ 640 kbps  粤语
  98. Language                                 : Chinese
  99. Service kind                             : Complete Main
  100. Default                                  : No
  101. Forced                                   : No
  102. Audio #4
  103. ID                                       : 5
  104. Format                                   : AC-3
  105. Format/Info                              : Audio Coding 3
  106. Commercial name                          : Dolby Digital
  107. Codec ID                                 : A_AC3
  108. Duration                                 : 1 h 29 min
  109. Bit rate mode                            : Constant
  110. Bit rate                                 : 640 kb/s
  111. Channel(s)                               : 6 channels
  112. Channel layout                           : L R C LFE Ls Rs
  113. Sampling rate                            : 48.0 kHz
  114. Frame rate                               : 31.250 FPS (1536 SPF)
  115. Compression mode                         : Lossy
  116. Stream size                              : 411 MiB (5%)
  117. Title                                    : Mandarin Dolby Digital Audio 5.1 @ 640 kbps  台配国语
  118. Language                                 : Chinese
  119. Service kind                             : Complete Main
  120. Default                                  : No
  121. Forced                                   : No
  122. Audio #5
  123. ID                                       : 6
  124. Format                                   : AC-3
  125. Format/Info                              : Audio Coding 3
  126. Commercial name                          : Dolby Digital
  127. Codec ID                                 : A_AC3
  128. Duration                                 : 1 h 29 min
  129. Bit rate mode                            : Constant
  130. Bit rate                                 : 192 kb/s
  131. Channel(s)                               : 2 channels
  132. Channel layout                           : L R
  133. Sampling rate                            : 48.0 kHz
  134. Frame rate                               : 31.250 FPS (1536 SPF)
  135. Compression mode                         : Lossy
  136. Stream size                              : 123 MiB (2%)
  137. Title                                    : English Dolby Digital Audio 2.0 @ 192 kbps  Commentary
  138. Language                                 : English
  139. Service kind                             : Complete Main
  140. Default                                  : No
  141. Forced                                   : No
  142. Text #1
  143. ID                                       : 7
  144. Format                                   : PGS
  145. Codec ID                                 : S_HDMV/PGS
  146. Codec ID/Info                            : Picture based subtitle format used on BDs/HD-DVDs
  147. Duration                                 : 1 h 26 min
  148. Bit rate                                 : 41.7 kb/s
  149. Count of elements                        : 2190
  150. Stream size                              : 25.8 MiB (0%)
  151. Title                                    : Eng/SUP
  152. Language                                 : English
  153. Default                                  : No
  154. Forced                                   : No
  155. Text #2
  156. ID                                       : 8
  157. Format                                   : PGS
  158. Codec ID                                 : S_HDMV/PGS
  159. Codec ID/Info                            : Picture based subtitle format used on BDs/HD-DVDs
  160. Duration                                 : 1 h 28 min
  161. Bit rate                                 : 35.5 kb/s
  162. Count of elements                        : 2366
  163. Stream size                              : 22.6 MiB (0%)
  164. Title                                    : Chs/SUP  原盘简体
  165. Language                                 : Chinese
  166. Default                                  : Yes
  167. Forced                                   : No
  168. Text #3
  169. ID                                       : 9
  170. Format                                   : PGS
  171. Codec ID                                 : S_HDMV/PGS
  172. Codec ID/Info                            : Picture based subtitle format used on BDs/HD-DVDs
  173. Duration                                 : 1 h 29 min
  174. Bit rate                                 : 28.0 kb/s
  175. Count of elements                        : 2182
  176. Stream size                              : 18.0 MiB (0%)
  177. Title                                    : Cht/SUP  原盘繁体(HK)
  178. Language                                 : Chinese
  179. Default                                  : No
  180. Forced                                   : No
  181. Text #4
  182. ID                                       : 10
  183. Format                                   : PGS
  184. Codec ID                                 : S_HDMV/PGS
  185. Codec ID/Info                            : Picture based subtitle format used on BDs/HD-DVDs
  186. Duration                                 : 1 h 29 min
  187. Bit rate                                 : 33.4 kb/s
  188. Count of elements                        : 2854
  189. Stream size                              : 21.4 MiB (0%)
  190. Title                                    : Cht/SUP  原盘繁体(TW)
  191. Language                                 : Chinese
  192. Default                                  : No
  193. Forced                                   : No
  194. Text #5
  195. ID                                       : 11
  196. Format                                   : PGS
  197. Codec ID                                 : S_HDMV/PGS
  198. Codec ID/Info                            : Picture based subtitle format used on BDs/HD-DVDs
  199. Duration                                 : 1 h 28 min
  200. Bit rate                                 : 52.2 kb/s
  201. Count of elements                        : 3077
  202. Stream size                              : 33.1 MiB (0%)
  203. Title                                    : Cht/SUP  原盘繁体Commentary
  204. Language                                 : Chinese
  205. Default                                  : No
  206. Forced                                   : No
  207. Menu
  208. 00:00:00.000                             : :第 01 章
  209. 00:08:48.445                             : :第 02 章
  210. 00:11:03.413                             : :第 03 章
  211. 00:14:33.748                             : :第 04 章
  212. 00:21:21.071                             : :第 05 章
  213. 00:27:25.143                             : :第 06 章
  214. 00:30:33.540                             : :第 07 章
  215. 00:36:49.082                             : :第 08 章
  216. 00:42:41.350                             : :第 09 章
  217. 00:45:58.673                             : :第 10 章
  218. 00:50:35.950                             : :第 11 章
  219. 00:57:03.587                             : :第 12 章
  220. 01:02:35.293                             : :第 13 章
  221. 01:09:07.769                             : :第 14 章
  222. 01:14:39.475                             : :第 15 章
  223. 01:19:34.478                             : :第 16 章
复制代码




TAGS 奇幻 动画 喜剧 /

磁力链:
  • magnet:?xt=urn:btih:ED8BDC4F332E2B8857CD467959D2A23428B2E691
上传的附件:
BT9527电影天堂 1、BT9527电影天堂提供的BT文件均来源于互联网抓取,只供网友学习交流、技术提升使用。
2、我们遵守BitTorrent点对点协议原则,任何版权问题请联系原资源发布商,我们不处理任何版权纠纷,谢谢!如有争议请联系邮箱:BT9527#hotmail.com(#换成@)
3、如果您发现某页面或地址有错误,请联系站长邮箱BT9527#hotmail.com(#换成@),我们会尽快处理。您的热心是对BT9527电影天堂最大的支持。
4、本站建议去正规影院观看电影以支持电影行业发展。
最新回复 (0)

你可以在 登录 or 注册 后,对此帖发表评论!

返回
发新帖