精装追女仔[共3部合集][国粤英多音轨/简繁英字幕].The.Romancing.Star.1-3.1987-1989.BluRay.1080p.2Audio.TrueHD.5.1.x265.10bit-ALT 33.62GB

版主小s 22天前 304

◎译  名 精装追女仔 / The Romancing Star
◎片  名 精裝追女仔
◎年  代 1987
◎产  地 中国香港
◎类  别 喜剧 / 爱情
◎语  言 粤语
◎上映日期 1987-06-25
◎IMDb链接 https://www.imdb.com/title/tt0093056/
◎豆瓣评分 6.8/10 (17266人评价)
◎豆瓣链接 https://movie.douban.com/subject/1299282/
◎片  长 Hong Kong: 102 分钟
◎导  演 王晶 Jing Wong (id:1274331)
◎编  剧 王晶 Jing Wong (id:1274331)
◎演  员 周润发 Yun-Fat Chow (id:1044899)
       张曼玉 Maggie Cheung (id:1274231)
       曾志伟 Eric Tsang (id:1002862)
       冯淬帆 Stanley Fung (id:1274503)
       陈百祥 Pak-cheung Chan (id:1070608)
       张敏 Sharla Cheung (id:1005297)
       王晶 Jing Wong (id:1274331)
       郑裕玲 Carol 'Do Do' Cheng (id:1070060)
       王天林 Tian-lin Wang (id:1041074)
       陈友 Anthony Chan (id:1028948)
       上山诗钠 Anna Kamiyama (id:1321838)
       陈欣健 Philip Chan (id:1007245)
       翁世杰 Sai-Kit Yung (id:1319534)
       苏杏璇 Hang Shuen So (id:1315141)
       玛利亚 Maria Cordero (id:1281277)
       梁珊 Shan Leung (id:1329213)
       冼灏英 Thomas Sin Ho-Ying (id:1347644)
       蒋丽萍 Lai Ping Chiang (id:1280644)
       伍国健 Kwok-kin Ng (id:1418713)
       葛萍 Ping Ko (id:1414682)
       姜中平 Chung Ping Geung (id:1129500)
       周锦祥 Gam Cheung Chow (id:1315803)
       黄小龙 Hsiao-lung Huang (id:1345887)

◎简  介
  同在一个修车店工作的烂口发(周润发 饰)、交通灯(陈百祥 饰)还有吴准少(曾志伟 饰)是同事也是好友,他们都不屑老板刘定坚(冯淬帆 饰)的吝啬刻薄。                                    
                                烂口发因不堪女友(张敏 饰)的势利眼母亲而忍痛与女友分开了。刘定坚建议伙计们一起跟廉价旅行团到槟城游玩,但到达才知道这个旅行团是货不对版的。但在槟城,烂口发等人认识了在当地拍广告的董董(张曼玉 饰)与其好友蚊滋。烂口发想进一步接近董董,便假装自己是富家公子,董董也同样以富家女的身份欺骗对方。                                    
                                两人出席一个舞会的时候得罪了真正的富家子赵完先,赵完先还看上了董董。赵为了要报复烂口发,他向董董揭发了烂口发的真实身份,董董面对欺骗非常伤心。董董准备参加赵完先的舞会,但她与好友都不知道卑鄙的赵完先另有企图,烂口发等人前往营救。



  1. 合集文件列表:

  2. 1.The.Romancing.Star.1987.BluRay.1080p.2Audio.TrueHD.5.1.x265.10bit-ALT.mkv 10.53GB

  3. 2.The.Romancing.Star.II.1988.BluRay.1080p.2Audio.TrueHD.5.1.x265.10bit-ALT.mkv 9.93GB

  4. 3.The.Romancing.Star.III.1989.BluRay.1080p.2Audio.TrueHD.5.1.x265.10bit-ALT.mkv 13.16GB

复制代码





  1. ##### MediaInfo ######
  2. General
  3. Unique ID                                : 267641032592878191447687213517398292302 (0xC959C9B3ED95D3C3426E1E38A45B374E)
  4. Complete name                            : The.Romancing.Star.1987.BluRay.1080p.2Audio.TrueHD.5.1.x265.10bit-ALT.mkv
  5. Format                                   : Matroska
  6. Format version                           : Version 4
  7. File size                                : 10.5 GiB
  8. Duration                                 : 1 h 41 min
  9. Overall bit rate mode                    : Variable
  10. Overall bit rate                         : 14.8 Mb/s
  11. Encoded date                             : UTC 2020-11-03 08:03:26
  12. Writing application                      : mkvmerge v49.0.0 ('Sick Of Losing Soulmates') 64-bit
  13. Writing library                          : libebml v1.4.0 + libmatroska v1.6.1
  14. Video
  15. ID                                       : 1
  16. Format                                   : HEVC
  17. Format/Info                              : High Efficiency Video Coding
  18. Format profile                           : Main 10@L5.1@High
  19. Codec ID                                 : V_MPEGH/ISO/HEVC
  20. Duration                                 : 1 h 41 min
  21. Bit rate                                 : 11.2 Mb/s
  22. Width                                    : 1 920 pixels
  23. Height                                   : 1 080 pixels
  24. Display aspect ratio                     : 16:9
  25. Frame rate mode                          : Constant
  26. Frame rate                               : 24.000 FPS
  27. Color space                              : YUV
  28. Chroma subsampling                       : 4:2:0
  29. Bit depth                                : 10 bits
  30. Bits/(Pixel*Frame)                       : 0.224
  31. Stream size                              : 7.95 GiB (75%)
  32. Title                                    : HEVC, x265Main10@L5.1@High, 24 fps @ 11169 kbps
  33. Writing library                          : x265 3.4+14-gd419c7152:[Windows][GCC 10.2.0][64 bit] 10bit
  34. Encoding settings                        : cpuid=533541111039 / frame-threads=5 / numa-pools=44,44 / wpp / pmode / pme / no-psnr / no-ssim / log-level=2 / input-csp=1 / input-res=1920x1080 / interlace=0 / total-frames=146665 / level-idc=51 / high-tier=1 / uhd-bd=0 / ref=5 / no-allow-non-conformance / no-repeat-headers / annexb / no-aud / no-hrd / info / hash=0 / no-temporal-layers / open-gop / min-keyint=24 / keyint=240 / gop-lookahead=0 / bframes=6 / b-adapt=2 / b-pyramid / bframe-bias=0 / rc-lookahead=40 / lookahead-slices=0 / NTMzNTQ=uuDQuD2mJt9fsCf / scenecut=40 / hist-scenecut=0 / radl=0 / no-splice / no-intra-refresh / ctu=32 / min-cu-size=8 / no-rect / no-amp / max-tu-size=32 / tu-inter-depth=3 / tu-intra-depth=3 / limit-tu=4 / rdoq-level=2 / dynamic-rd=0.00 / no-ssim-rd / signhide / no-tskip / nr-intra=0 / nr-inter=0 / no-constrained-intra / no-strong-intra-smoothing / max-merge=4 / limit-refs=1 / limit-modes / me=3 / subme=4 / merange=25 / temporal-mvp / no-frame-dup / no-hme / weightp / weightb / no-analyze-src-pics / deblock=-3:-3 / no-sao / no-sao-non-deblock / rd=6 / selective-sao=0 / no-early-skip / rskip / no-fast-intra / no-tskip-fast / no-cu-lossless / b-intra / no-splitrd-skip / rdpenalty=0 / psy-rd=2.00 / psy-rdoq=1.00 / no-rd-refine / no-lossless / cbqpoffs=0 / crqpoffs=0 / rc=crf / crf=21.0 / qcomp=0.65 / qpstep=4 / stats-write=0 / stats-read=0 / vbv-maxrate=80000 / vbv-bufsize=80000 / vbv-init=0.9 / crf-max=0.0 / crf-min=0.0 / ipratio=1.40 / pbratio=1.30 / aq-mode=2 / aq-strength=0.85 / cutree / zone-count=0 / no-strict-cbr / qg-size=32 / no-rc-grain / qpmax=69 / qpmin=0 / no-const-vbv / sar=1 / overscan=0 / videoformat=5 / range=0 / colorprim=1 / transfer=1 / colormatrix=1 / chromaloc=0 / display-window=0 / cll=0,0 / min-luma=0 / max-luma=1023 / log2-max-poc-lsb=8 / vui-timing-info / vui-hrd-info / slices=1 / no-opt-qp-pps / no-opt-ref-list-length-pps / no-multi-pass-opt-rps / scenecut-bias=0.05 / hist-threshold=0.03 / no-opt-cu-delta-qp / no-aq-motion / no-hdr10 / no-hdr10-opt / no-dhdr10-opt / no-idr-recovery-sei / analysis-reuse-level=0 / analysis-save-reuse-level=0 / analysis-load-reuse-level=0 / scale-factor=0 / refine-intra=0 / refine-inter=0 / refine-mv=1 / refine-ctu-distortion=0 / no-limit-sao / ctu-info=0 / no-lowpass-dct / refine-analysis-type=0 / copy-pic=1 / max-ausize-factor=1.0 / no-dynamic-refine / no-single-sei / no-hevc-aq / no-svt / no-field / qp-adaptation-range=1.00 / no-scenecut-aware-qpconformance-window-offsets / right=0 / bottom=0 / NTMzNTQ= / decoder-max-rate=0
  35. Language                                 : English
  36. Default                                  : Yes
  37. Forced                                   : No
  38. Color range                              : Limited
  39. Color primaries                          : BT.709
  40. Transfer characteristics                 : BT.709
  41. Matrix coefficients                      : BT.709
  42. Audio #1
  43. ID                                       : 2
  44. Format                                   : MLP FBA
  45. Format/Info                              : Meridian Lossless Packing FBA
  46. Commercial name                          : Dolby TrueHD
  47. Codec ID                                 : A_TRUEHD
  48. Duration                                 : 1 h 41 min
  49. Bit rate mode                            : Variable
  50. Bit rate                                 : 2 017 kb/s
  51. Maximum bit rate                         : 2 172 kb/s
  52. Channel(s)                               : 6 channels
  53. Channel layout                           : L R C LFE Ls Rs
  54. Sampling rate                            : 96.0 kHz
  55. Frame rate                               : 1 200.000 FPS (80 SPF)
  56. Compression mode                         : Lossless
  57. Stream size                              : 1.43 GiB (14%)
  58. Title                                    : Cantonese Dolby TrueHD Audio 5.1 @ 2657 kbps
  59. Language                                 : Chinese
  60. Default                                  : Yes
  61. Forced                                   : No
  62. Audio #2
  63. ID                                       : 3
  64. Format                                   : AC-3
  65. Format/Info                              : Audio Coding 3
  66. Commercial name                          : Dolby Digital
  67. Codec ID                                 : A_AC3
  68. Duration                                 : 1 h 41 min
  69. Bit rate mode                            : Constant
  70. Bit rate                                 : 640 kb/s
  71. Channel(s)                               : 6 channels
  72. Channel layout                           : L R C LFE Ls Rs
  73. Sampling rate                            : 48.0 kHz
  74. Frame rate                               : 31.250 FPS (1536 SPF)
  75. Compression mode                         : Lossy
  76. Stream size                              : 466 MiB (4%)
  77. Title                                    : Cantonese Dolby Digital Audio 5.1 @ 640 kbps
  78. Language                                 : Chinese
  79. Service kind                             : Complete Main
  80. Default                                  : No
  81. Forced                                   : No
  82. Audio #3
  83. ID                                       : 4
  84. Format                                   : DTS XLL
  85. Format/Info                              : Digital Theater Systems
  86. Commercial name                          : DTS-HD Master Audio
  87. Codec ID                                 : A_DTS
  88. Duration                                 : 1 h 41 min
  89. Bit rate mode                            : Variable
  90. Bit rate                                 : 764 kb/s
  91. Channel(s)                               : 2 channels
  92. Channel layout                           : L R
  93. Sampling rate                            : 48.0 kHz
  94. Frame rate                               : 93.750 FPS (512 SPF)
  95. Bit depth                                : 16 bits
  96. Compression mode                         : Lossless
  97. Stream size                              : 557 MiB (5%)
  98. Title                                    : Mandarin DTS-HD Master Audio 2.0 @ 765 kbps
  99. Language                                 : Chinese
  100. Default                                  : No
  101. Forced                                   : No
  102. Text #1
  103. ID                                       : 5
  104. Format                                   : PGS
  105. Codec ID                                 : S_HDMV/PGS
  106. Codec ID/Info                            : Picture based subtitle format used on BDs/HD-DVDs
  107. Duration                                 : 1 h 41 min
  108. Bit rate                                 : 46.7 kb/s
  109. Count of elements                        : 2565
  110. Stream size                              : 33.8 MiB (0%)
  111. Title                                    : Cht/SUP  原盘繁体
  112. Language                                 : Chinese
  113. Default                                  : No
  114. Forced                                   : No
  115. Text #2
  116. ID                                       : 6
  117. Format                                   : PGS
  118. Codec ID                                 : S_HDMV/PGS
  119. Codec ID/Info                            : Picture based subtitle format used on BDs/HD-DVDs
  120. Duration                                 : 1 h 41 min
  121. Bit rate                                 : 45.8 kb/s
  122. Count of elements                        : 2571
  123. Stream size                              : 33.1 MiB (0%)
  124. Title                                    : Chs/SUP  原盘简体
  125. Language                                 : Chinese
  126. Default                                  : Yes
  127. Forced                                   : No
  128. Text #3
  129. ID                                       : 7
  130. Format                                   : PGS
  131. Codec ID                                 : S_HDMV/PGS
  132. Codec ID/Info                            : Picture based subtitle format used on BDs/HD-DVDs
  133. Duration                                 : 1 h 41 min
  134. Bit rate                                 : 46.9 kb/s
  135. Count of elements                        : 2571
  136. Stream size                              : 34.0 MiB (0%)
  137. Title                                    : Eng/SUP
  138. Language                                 : English
  139. Default                                  : No
  140. Forced                                   : No
  141. Menu
  142. 00:00:00.000                             : :第 01 章
  143. 00:07:52.333                             : :第 02 章
  144. 00:16:04.792                             : :第 03 章
  145. 00:23:36.833                             : :第 04 章
  146. 00:32:54.500                             : :第 05 章
  147. 00:42:45.542                             : :第 06 章
  148. 00:51:53.292                             : :第 07 章
  149. 01:01:02.042                             : :第 08 章
  150. 01:09:11.708                             : :第 09 章
  151. 01:17:17.042                             : :第 10 章
  152. 01:27:06.125                             : :第 11 章
  153. 01:34:48.167                             : :第 12 章
复制代码




TAGS 喜剧 爱情 /

磁力链:
  • magnet:?xt=urn:btih:CA886CB0723315981DA3F06DD42A1F181CEB1917
上传的附件:
BT9527电影天堂 1、BT9527电影天堂提供的BT文件均来源于互联网抓取,只供网友学习交流、技术提升使用。
2、我们遵守BitTorrent点对点协议原则,任何版权问题请联系原资源发布商,我们不处理任何版权纠纷,谢谢!如有争议请联系邮箱:BT9527#hotmail.com(#换成@)
3、如果您发现某页面或地址有错误,请联系站长邮箱BT9527#hotmail.com(#换成@),我们会尽快处理。您的热心是对BT9527电影天堂最大的支持。
4、本站建议去正规影院观看电影以支持电影行业发展。
最新回复 (0)

你可以在 登录 or 注册 后,对此帖发表评论!

返回
发新帖