爱宠大机密2[国粤英多音轨/简英字幕].The.Secret.Life.of.Pets.2.2019.2160p.BluRay.x265.10bit.HDR10Plus.DTS-X.7.1-MiniHD 8.68GB

版主小s 24天前 123



◎译  名 爱宠大机密2 / Pet Pet当家2(港) / 宠物当家2(台) / 宠物的秘密生活2
◎片  名 The Secret Life of Pets 2
◎年  代 2019
◎产  地 美国
◎类  别 喜剧 / 动画 / 冒险
◎语  言 英语
◎上映日期 2019-07-05(中国大陆) / 2019-06-07(美国)
◎IMDb链接 https://www.imdb.com/title/tt5113040/
◎豆瓣评分 6.8/10 (119369人评价)
◎豆瓣链接 https://movie.douban.com/subject/26848167/
◎片  长 86分钟
◎导  演 克里斯·雷纳德 Chris Renaud (id:1295449)
◎编  剧 布莱恩·林奇 Brian Lynch (id:1116519)
◎演  员 帕顿·奥斯瓦尔特 Patton Oswalt (id:1007015)
       凯文·哈特 Kevin Hart (id:1286162)
       哈里森·福特 Harrison Ford (id:1009238)
       艾瑞克·斯通斯崔特 Eric Stonestreet (id:1049652)
       珍妮·斯蕾特 Jenny Slate (id:1230973)
       蒂凡尼·哈迪斯 Tiffany Haddish (id:1194813)
       蕾克·贝尔 Lake Bell (id:1000020)
       达纳·卡维 Dana Carvey (id:1017989)
       鲍比·莫尼汉 Bobby Moynihan (id:1204579)
       汉尼拔·布勒斯 Hannibal Buress (id:1354114)
       克里斯·雷纳德 Chris Renaud (id:1295449)
       艾丽·坎伯尔 Ellie Kemper (id:1257208)
       皮特·霍姆斯 Pete Holmes (id:1365772)
       尼克·克罗尔 Nick Kroll (id:1321396)
       肖恩·吉布朗尼 Sean Giambrone (id:1339560)
       梅雷迪斯·萨拉格尔 Meredith Salenger (id:1055152)
       迈克尔·贝亚蒂 Michael Beattie (id:1350431)
       大卫·阿克德 David Acord (id:1355122)
       斯科特·摩西尔 Scott Mosier (id:1032291)
       杰米·卡米尔 Jaime Camil (id:1077191)
       拉瑞恩·纽曼 Laraine Newman (id:1131524)
       布莱恩·T·德莱尼 Brian T. Delaney (id:1206163)
       杰西卡·迪西可 Jessica Di Cicco (id:1085905)
       桑德拉·艾切维里亚 Sandra Echeverría (id:1207443)
       加斯·詹宁斯 Garth Jennings (id:1303814)
       塔拉·斯特朗 Tara Strong (id:1078960)
       弗雷德·塔特西奥 Fred Tatasciore (id:1320585)
       约翰·卡西尔 John Kassir (id:1041196)
       斯科特·门维尔 Scott Menville (id:1120547)
       马修·伍德 Matthew Wood (id:1023039)
       陈佩斯 Peisi Chen (id:1280571)
       冯绍峰 Shaofeng Feng (id:1275721)
       郭采洁 Amber Kuo (id:1274814)
       马丽 Li Ma (id:1319032)
       冯小刚 Xiaogang Feng (id:1274255)
       亚历山大·德斯普拉 Alexandre Desplat (id:1049972)
       蒂凡尼·L·库尔茨 Tiffany L. Kurtz (id:1011039)

◎简  介
  《爱宠大机密2》将延续2016年夏天轰动一时的《爱宠大机密》的故事,讲述宠物在我们每天离家工作或上学后的生活。照明娱乐创始人兼首席执行官克里斯·梅勒丹德利和他长久以来的合作伙伴珍娜·海莉将共同制作这部续集。《爱宠大机密》是当时开画成绩最好的原创电影,不论是动画片还是其他类型。                                    
                                《爱宠大机密2》继续由布莱恩·林奇(《小黄人大眼萌》)编剧,并再一次由克里斯·雷纳德(《神偷奶爸》系列,《老雷斯的故事》)执导。

◎获奖情况 (共2项)
  第47届动画安妮奖 (2020)
  最佳配音(提名)
   └──珍妮·斯蕾特 (id:1230973)
  最佳剪辑(提名)
   └──蒂凡尼·L·库尔茨 (id:1011039)

  1. ##### MediaInfo ######
  2. General
  3. Unique ID                                : 312073364478549774409816539824469565805 (0xEAC724CCC4431206C2783DAAE1FBE16D)
  4. Complete name                            : The.Secret.Life.of.Pets.2.2019.2160p.BluRay.x265.10bit.HDR10Plus.DTS-X.7.1-MiniHD.mkv
  5. Format                                   : Matroska
  6. Format version                           : Version 4
  7. File size                                : 8.68 GiB
  8. Duration                                 : 1 h 26 min
  9. Overall bit rate mode                    : Variable
  10. Overall bit rate                         : 14.4 Mb/s
  11. Movie name                               : The.Secret.Life.of.Pets.2.2019.2160p.BluRay.REMUX.HEVC.DTS-HD.MA.TrueHD.7.1.Atmos-FGT
  12. Encoded date                             : UTC 2020-03-26 04:58:43
  13. Writing application                      : mkvmerge v44.0.0 ('Domino') 64-bit
  14. Writing library                          : libebml v1.3.10 + libmatroska v1.5.2
  15. Cover                                    : Yes
  16. Attachments                              : cover_land.jpg / small_cover.jpg / small_cover_land.jpg / cover.jpg / cover_land.jpg / small_cover.jpg / small_cover_land.jpg / cover.jpg
  17. Video
  18. ID                                       : 1
  19. Format                                   : HEVC
  20. Format/Info                              : High Efficiency Video Coding
  21. Format profile                           : Main 10@L5.1@High
  22. HDR format                               : SMPTE ST 2094 App 4, Version 1, HDR10+ Profile B compatible
  23. Codec ID                                 : V_MPEGH/ISO/HEVC
  24. Duration                                 : 1 h 26 min
  25. Bit rate                                 : 8 367 kb/s
  26. Width                                    : 3 840 pixels
  27. Height                                   : 2 076 pixels
  28. Display aspect ratio                     : 1.85:1
  29. Frame rate mode                          : Constant
  30. Frame rate                               : 23.976 (24000/1001/53354) FPS
  31. Color space                              : YUV
  32. Chroma subsampling                       : 4:2:0
  33. Bit depth                                : 10 bits
  34. Bits/(Pixel*Frame)                       : 0.044
  35. Stream size                              : 5.03 GiB (58%)
  36. Writing library                          : x265 3.3+5-g9266cf703:[Windows][GCC 10.0.1][64 bit] 10bit
  37. Encoding settings                        : cpuid=533541111039 / frame-threads=6 / numa-pools=24 / wpp / pmode / no-pme / no-psnr / no-ssim / log-level=2 / input-csp=1 / input-res=3840x2076 / interlace=0 / total-frames=123817 / level-idc=51 / high-tier=1 / uhd-bd=0 / ref=4 / no-allow-non-conformance / repeat-headers / annexb / aud / hrd / info / hash=0 / no-temporal-layers / no-open-gop / min-keyint=1 / keyint=360 / gop-lookahead=0 / bframes=8 / b-adapt=2 / b-pyramid / bframe-bias=0 / rc-lookahead=60 / lookahead-slices=0 / NTMzNTQ=uuDQuD2mJt9fsCf / scenecut=40 / hist-scenecut=0 / radl=0 / no-splice / no-intra-refresh / ctu=64 / min-cu-size=8 / no-rect / no-amp / max-tu-size=32 / tu-inter-depth=2 / tu-intra-depth=2 / limit-tu=0 / rdoq-level=1 / dynamic-rd=0.00 / no-ssim-rd / signhide / no-tskip / nr-intra=0 / nr-inter=0 / no-constrained-intra / no-strong-intra-smoothing / max-merge=4 / limit-refs=0 / limit-modes / me=3 / subme=4 / merange=40 / temporal-mvp / no-frame-dup / no-hme / weightp / weightb / no-analyze-src-pics / deblock=-1:-1 / no-sao / no-sao-non-deblock / rd=4 / selective-sao=0 / no-early-skip / rskip / no-fast-intra / no-tskip-fast / no-cu-lossless / b-intra / no-splitrd-skip / rdpenalty=1 / psy-rd=2.00 / psy-rdoq=4.00 / no-rd-refine / no-lossless / cbqpoffs=-3 / crqpoffs=-3 / rc=crf / crf=17.0 / qcomp=0.60 / qpstep=4 / stats-write=0 / stats-read=0 / vbv-maxrate=160000 / vbv-bufsize=160000 / vbv-init=0.9 / crf-max=0.0 / crf-min=0.0 / ipratio=1.40 / pbratio=1.20 / aq-mode=1 / aq-strength=0.85 / cutree / zone-count=0 / no-strict-cbr / qg-size=32 / no-rc-grain / qpmax=69 / qpmin=0 / no-const-vbv / sar=0 / overscan=0 / videoformat=5 / range=0 / colorprim=9 / transfer=16 / colormatrix=9 / chromaloc=0 / display-window=0 / master-display=G(13250,34500)B(7500,3000)R(34000,16000)WP(15635,16450)L(10000000,1) / cll=1000,412 / min-luma=0 / max-luma=1023 / log2-max-poc-lsb=8 / vui-timing-info / vui-hrd-info / slices=1 / no-opt-qp-pps / no-opt-ref-list-length-pps / no-multi-pass-opt-rps / scenecut-bias=0.05 / hist-threshold=0.01 / no-opt-cu-delta-qp / no-aq-motion / hdr10 / hdr10-opt / dhdr10-opt / no-idr-recovery-sei / analysis-reuse-level=0 / analysis-save-reuse-level=0 / analysis-load-reuse-level=0 / scale-factor=0 / refine-intra=0 / refine-inter=0 / refine-mv=1 / refine-ctu-distortion=0 / no-limit-sao / ctu-info=0 / no-lowpass-dct / refine-analysis-type=0 / copy-pic=1 / max-ausize-factor=1.0 / no-dynamic-refine / no-single-sei / no-hevc-aq / no-svt / no-field / qp-adaptation-range=1.00 / no-scenecut-aware-qpconformance-window-offsets / right=0 / bottom=0 / NTMzNTQ=
  38. Language                                 : English
  39. Default                                  : Yes
  40. Forced                                   : No
  41. Color range                              : Limited
  42. Color primaries                          : BT.2020
  43. Transfer characteristics                 : PQ
  44. Matrix coefficients                      : BT.2020 non-constant
  45. Mastering display color primaries        : Display P3
  46. Mastering display luminance              : min: 0.0001 cd/m2, max: 1000 cd/m2
  47. Maximum Content Light Level              : 1000 cd/m2
  48. Maximum Frame-Average Light Level        : 412 cd/m2
  49. Audio #1
  50. ID                                       : 2
  51. Format                                   : DTS XLL
  52. Format/Info                              : Digital Theater Systems
  53. Commercial name                          : DTS-HD Master Audio
  54. Codec ID                                 : A_DTS
  55. Duration                                 : 1 h 26 min
  56. Bit rate mode                            : Variable
  57. Bit rate                                 : 4 109 kb/s
  58. Channel(s)                               : 8 channels
  59. Channel layout                           : C L R LFE Lb Rb Lss Rss
  60. Sampling rate                            : 48.0 kHz
  61. Frame rate                               : 93.750 FPS (512 SPF)
  62. Bit depth                                : 24 bits
  63. Compression mode                         : Lossless
  64. Stream size                              : 2.47 GiB (28%)
  65. Title                                    : English DTS-X  7.1
  66. Language                                 : English
  67. Default                                  : Yes
  68. Forced                                   : No
  69. Audio #2
  70. ID                                       : 3
  71. Format                                   : E-AC-3
  72. Format/Info                              : Enhanced AC-3
  73. Commercial name                          : Dolby Digital Plus
  74. Format profile                           : Blu-ray Disc
  75. Codec ID                                 : A_EAC3
  76. Duration                                 : 1 h 26 min
  77. Bit rate mode                            : Constant
  78. Bit rate                                 : 768 kb/s
  79. Channel(s)                               : 8 channels
  80. Channel layout                           : L R C LFE Ls Rs Lb Rb
  81. Sampling rate                            : 48.0 kHz
  82. Frame rate                               : 31.250 FPS (1536 SPF)
  83. Compression mode                         : Lossy
  84. Delay relative to video                  : 650 ms
  85. Stream size                              : 473 MiB (5%)
  86. Title                                    : 台配国语 E-AC-3  5.1  768kb/s
  87. Language                                 : Chinese
  88. Service kind                             : Complete Main
  89. Default                                  : No
  90. Forced                                   : No
  91. Audio #3
  92. ID                                       : 4
  93. Format                                   : E-AC-3
  94. Format/Info                              : Enhanced AC-3
  95. Commercial name                          : Dolby Digital Plus
  96. Format profile                           : Blu-ray Disc
  97. Codec ID                                 : A_EAC3
  98. Duration                                 : 1 h 26 min
  99. Bit rate mode                            : Constant
  100. Bit rate                                 : 768 kb/s
  101. Channel(s)                               : 8 channels
  102. Channel layout                           : L R C LFE Ls Rs Lb Rb
  103. Sampling rate                            : 48.0 kHz
  104. Frame rate                               : 31.250 FPS (1536 SPF)
  105. Compression mode                         : Lossy
  106. Delay relative to video                  : 650 ms
  107. Stream size                              : 473 MiB (5%)
  108. Title                                    : 粤语 E-AC-3  5.1  768kb/s
  109. Language                                 : Chinese
  110. Service kind                             : Complete Main
  111. Default                                  : No
  112. Forced                                   : No
  113. Audio #4
  114. ID                                       : 5
  115. Format                                   : AC-3
  116. Format/Info                              : Audio Coding 3
  117. Commercial name                          : Dolby Digital
  118. Codec ID                                 : A_AC3
  119. Duration                                 : 1 h 26 min
  120. Bit rate mode                            : Constant
  121. Bit rate                                 : 384 kb/s
  122. Channel(s)                               : 6 channels
  123. Channel layout                           : L R C LFE Ls Rs
  124. Sampling rate                            : 48.0 kHz
  125. Frame rate                               : 31.250 FPS (1536 SPF)
  126. Compression mode                         : Lossy
  127. Delay relative to video                  : 650 ms
  128. Stream size                              : 236 MiB (3%)
  129. Title                                    : 公映国语  AC3  5.1   384kb/s
  130. Language                                 : Chinese
  131. Service kind                             : Complete Main
  132. Default                                  : No
  133. Forced                                   : No
  134. Text #1
  135. ID                                       : 6
  136. Format                                   : PGS
  137. Muxing mode                              : zlib
  138. Codec ID                                 : S_HDMV/PGS
  139. Codec ID/Info                            : Picture based subtitle format used on BDs/HD-DVDs
  140. Duration                                 : 1 h 25 min
  141. Bit rate                                 : 45.4 kb/s
  142. Count of elements                        : 3286
  143. Stream size                              : 27.8 MiB (0%)
  144. Title                                    : English-PGS
  145. Language                                 : English
  146. Default                                  : No
  147. Forced                                   : No
  148. Text #2
  149. ID                                       : 7
  150. Format                                   : PGS
  151. Muxing mode                              : zlib
  152. Codec ID                                 : S_HDMV/PGS
  153. Codec ID/Info                            : Picture based subtitle format used on BDs/HD-DVDs
  154. Duration                                 : 1 h 25 min
  155. Bit rate                                 : 27.4 kb/s
  156. Count of elements                        : 2178
  157. Stream size                              : 16.7 MiB (0%)
  158. Title                                    : Spanish-PGS
  159. Language                                 : Spanish
  160. Default                                  : No
  161. Forced                                   : No
  162. Text #3
  163. ID                                       : 8
  164. Format                                   : PGS
  165. Muxing mode                              : zlib
  166. Codec ID                                 : S_HDMV/PGS
  167. Codec ID/Info                            : Picture based subtitle format used on BDs/HD-DVDs
  168. Duration                                 : 1 h 25 min
  169. Bit rate                                 : 24.4 kb/s
  170. Count of elements                        : 1496
  171. Stream size                              : 14.9 MiB (0%)
  172. Title                                    : 简体中文
  173. Language                                 : Chinese
  174. Default                                  : Yes
  175. Forced                                   : No
  176. Menu
  177. 00:00:00.000                             : en:Chapter 01
  178. 00:05:35.209                             : en:Chapter 02
  179. 00:10:08.482                             : en:Chapter 03
  180. 00:13:26.889                             : en:Chapter 04
  181. 00:16:40.457                             : en:Chapter 05
  182. 00:19:57.529                             : en:Chapter 06
  183. 00:24:10.740                             : en:Chapter 07
  184. 00:28:16.319                             : en:Chapter 08
  185. 00:30:54.936                             : en:Chapter 09
  186. 00:35:15.780                             : en:Chapter 10
  187. 00:39:56.310                             : en:Chapter 11
  188. 00:45:47.995                             : en:Chapter 12
  189. 00:49:52.155                             : en:Chapter 13
  190. 00:56:55.328                             : en:Chapter 14
  191. 00:58:35.887                             : en:Chapter 15
  192. 01:02:49.515                             : en:Chapter 16
  193. 01:07:16.949                             : en:Chapter 17
  194. 01:12:49.490                             : en:Chapter 18
  195. 01:15:22.267                             : en:Chapter 19
  196. 01:18:10.394                             : en:Chapter 20


TAGS 冒险 动画 喜剧 /

磁力链:
  • magnet:?xt=urn:btih:530F944A016FFD448E13FE23ED3E392BE56C78F1
上传的附件:
BT9527电影天堂 1、BT9527电影天堂提供的BT文件均来源于互联网抓取,只供网友学习交流、技术提升使用。
2、我们遵守BitTorrent点对点协议原则,任何版权问题请联系原资源发布商,我们不处理任何版权纠纷,谢谢!如有争议请联系邮箱:BT9527#hotmail.com(#换成@)
3、如果您发现某页面或地址有错误,请联系站长邮箱BT9527#hotmail.com(#换成@),我们会尽快处理。您的热心是对BT9527电影天堂最大的支持。
4、本站建议去正规影院观看电影以支持电影行业发展。
最新回复 (0)

你可以在 登录 or 注册 后,对此帖发表评论!

返回
发新帖