焦土之城[中英字幕].Incendies.2010.BluRay.1080p.x265.10bit-MiniHD 4.79GB

版主小s 28天前 233



◎译  名 焦土之城 / 烈火焚身(台) / 母亲的告白(港) / 焦头烂额 / 烈火焚城 / 中东的希腊悲剧 / 黎巴嫩的俄狄浦斯
◎片  名 Incendies
◎年  代 2010
◎产  地 加拿大 / 法国
◎类  别 剧情 / 悬疑 / 战争
◎语  言 法语 / 阿拉伯语 / 英语
◎上映日期 2010-09-03(威尼斯电影节) / 2011-01-20(加拿大)
◎IMDb链接 https://www.imdb.com/title/tt1255953/
◎豆瓣评分 8.6/10 (54422人评价)
◎豆瓣链接 https://movie.douban.com/subject/4935242/
◎片  长 131分钟
◎导  演 丹尼斯·维伦纽瓦 Denis Villeneuve (id:1028333)
◎编  剧 丹尼斯·维伦纽瓦 Denis Villeneuve (id:1028333)
       瓦吉·穆阿瓦德 Wajdi Mouawad (id:1413048)
       瓦莱丽·博格朗-尚帕涅 Valérie Beaugrand-Champagne (id:1348850)
◎演  员 卢巴纳·阿兹巴尔 Lubna Azabal (id:1314431)
       梅丽莎·德索蒙斯-波林 Mélissa Désormeaux-Poulin (id:1315246)
       马克西姆·高德特 Maxim Gaudette (id:1019613)
       雷米·吉拉德 Rémy Girard (id:1025400)
       杰基·萨维里斯 Jackie Sawiris (id:1406970)
       巴亚·贝拉尔 Baya Belal (id:1321695)
       尤塞夫·什维哈特 Yousef Shweihat (id:1244786)
       卡里姆·巴宾 Karim Babin (id:1225095)
       穆罕默德·马吉德 Mohamed Majd (id:1290771)
       安东尼·东科 Anthony Doncque (id:1368130)

◎简  介
  双胞胎姐弟珍妮(梅丽莎·德索蒙斯-波林 Mélissa Désormeaux-Poulin饰)跟西蒙(马克西姆·高德特 Maxim Gaudette饰)收到过世的母亲娜瓦尔(卢布娜·阿扎宝 Lubna Azabal饰)的遗嘱,可当宣读完内容之后,两姐弟却一时难以接受这样的遗嘱:一份是写给他们从未蒙面的父亲;一份是写给她的第三个孩子——他们更是不知道这个哥哥的存在。影片巧妙的游走在两个不同的时空:母亲终其一生苦苦寻觅自己的长子;姐弟遵循母亲的遗嘱前往中东寻找他们的父亲与兄长。可越是穷其究竟,他们面对的越是理不清的头绪跟令人震惊的真相。                                    
                                本片改编自加拿大著名法语作家瓦基迪·穆阿瓦德的同名剧作。导演丹尼斯·维伦纽瓦荣获第83届奥斯卡金像奖最佳外语片提名。

◎获奖情况 (共6项)
  第83届奥斯卡金像奖 (2011)
  最佳外语片(提名)
   └──丹尼斯·维伦纽瓦 (id:1028333)

  第55届意大利大卫奖 (2011)
  最佳外语片(提名)
   └──丹尼斯·维伦纽瓦 (id:1028333)

  第77届纽约影评人协会奖 (2011)
  最佳外语片(提名)

  第32届波士顿影评人协会奖 (2011)
  最佳外语片

  第24届芝加哥影评人协会奖 (2011)
  最佳外语片(提名)

  第11届凤凰城影评人协会奖 (2011)
  最佳外语片(提名)

  1. ##### MediaInfo ######
  2. General
  3. Unique ID                                : 193200665735651061454328435253325881285 (0x91591840FC0497168974A06718AC5FC5)
  4. Complete name                            : Incendies.2010.BluRay.1080p.x265.10bit-MiniHD.mkv
  5. Format                                   : Matroska
  6. Format version                           : Version 4
  7. File size                                : 4.79 GiB
  8. Duration                                 : 2 h 10 min
  9. Overall bit rate                         : 5 254 kb/s
  10. Encoded date                             : UTC 2017-07-20 04:58:12
  11. Writing application                      : mkvmerge v11.0.0 ('Alive') 64bit
  12. Writing library                          : libebml v1.3.4 + libmatroska v1.4.5
  13. Video
  14. ID                                       : 1
  15. Format                                   : HEVC
  16. Format/Info                              : High Efficiency Video Coding
  17. Codec ID                                 : V_MPEGH/ISO/HEVC
  18. Duration                                 : 2 h 10 min
  19. Bit rate                                 : 4 582 kb/s
  20. Width                                    : 1 920 pixels
  21. Height                                   : 1 036 pixels
  22. Display aspect ratio                     : 1.85:1
  23. Frame rate mode                          : Constant
  24. Frame rate                               : 23.976 (24000/1001/53354) FPS
  25. Bits/(Pixel*Frame)                       : 0.096
  26. Stream size                              : 4.18 GiB (87%)
  27. Default                                  : Yes
  28. Forced                                   : No
  29. Audio
  30. ID                                       : 2
  31. Format                                   : AC-3
  32. Format/Info                              : Audio Coding 3
  33. Commercial name                          : Dolby Digital
  34. Codec ID                                 : A_AC3
  35. Duration                                 : 2 h 10 min
  36. Bit rate mode                            : Constant
  37. Bit rate                                 : 640 kb/s
  38. Channel(s)                               : 6 channels
  39. Channel layout                           : L R C LFE Ls Rs
  40. Sampling rate                            : 48.0 kHz
  41. Frame rate                               : 31.250 FPS (1536 SPF)
  42. Compression mode                         : Lossy
  43. Stream size                              : 597 MiB (12%)
  44. Language                                 : French
  45. Service kind                             : Complete Main
  46. Default                                  : Yes
  47. Forced                                   : No
  48. Text #1
  49. ID                                       : 3
  50. Format                                   : PGS
  51. Muxing mode                              : zlib
  52. Codec ID                                 : S_HDMV/PGS
  53. Codec ID/Info                            : Picture based subtitle format used on BDs/HD-DVDs
  54. Duration                                 : 2 h 6 min
  55. Bit rate                                 : 5 256 b/s
  56. Count of elements                        : 1701
  57. Stream size                              : 4.75 MiB (0%)
  58. Language                                 : English
  59. Default                                  : Yes
  60. Forced                                   : No
  61. Text #2
  62. ID                                       : 4
  63. Format                                   : PGS
  64. Muxing mode                              : zlib
  65. Codec ID                                 : S_HDMV/PGS
  66. Codec ID/Info                            : Picture based subtitle format used on BDs/HD-DVDs
  67. Duration                                 : 2 h 3 min
  68. Bit rate                                 : 7 749 b/s
  69. Count of elements                        : 1828
  70. Stream size                              : 6.86 MiB (0%)
  71. Language                                 : Chinese
  72. Default                                  : No
  73. Forced                                   : No
  74. Text #3
  75. ID                                       : 5
  76. Format                                   : PGS
  77. Muxing mode                              : zlib
  78. Codec ID                                 : S_HDMV/PGS
  79. Codec ID/Info                            : Picture based subtitle format used on BDs/HD-DVDs
  80. Duration                                 : 2 h 3 min
  81. Bit rate                                 : 8 040 b/s
  82. Count of elements                        : 1828
  83. Stream size                              : 7.11 MiB (0%)
  84. Language                                 : Chinese
  85. Default                                  : No
  86. Forced                                   : No
  87. Text #4
  88. ID                                       : 6
  89. Format                                   : PGS
  90. Muxing mode                              : zlib
  91. Codec ID                                 : S_HDMV/PGS
  92. Codec ID/Info                            : Picture based subtitle format used on BDs/HD-DVDs
  93. Duration                                 : 2 h 3 min
  94. Bit rate                                 : 10.5 kb/s
  95. Count of elements                        : 1826
  96. Stream size                              : 9.29 MiB (0%)
  97. Language                                 : Chinese
  98. Default                                  : No
  99. Forced                                   : No
  100. Menu
  101. 00:00:00.000                             : en:Chapter 01
  102. 00:03:55.776                             : en:Chapter 02
  103. 00:11:47.081                             : en:Chapter 03
  104. 00:18:55.800                             : en:Chapter 04
  105. 00:27:43.536                             : en:Chapter 05
  106. 00:34:46.332                             : en:Chapter 06
  107. 00:45:44.364                             : en:Chapter 07
  108. 00:53:07.893                             : en:Chapter 08
  109. 01:00:17.030                             : en:Chapter 09
  110. 01:09:55.231                             : en:Chapter 10
  111. 01:16:29.042                             : en:Chapter 11
  112. 01:22:13.094                             : en:Chapter 12
  113. 01:33:51.375                             : en:Chapter 13
  114. 01:40:46.957                             : en:Chapter 14
  115. 01:46:55.492                             : en:Chapter 15
  116. 01:57:12.774                             : en:Chapter 16
复制代码




TAGS 剧情 悬疑 战争 /

磁力链:
  • magnet:?xt=urn:btih:BCF598D11E365BF22DCA33523CD6165E04FAEB51
上传的附件:
BT9527电影天堂 1、BT9527电影天堂提供的BT文件均来源于互联网抓取,只供网友学习交流、技术提升使用。
2、我们遵守BitTorrent点对点协议原则,任何版权问题请联系原资源发布商,我们不处理任何版权纠纷,谢谢!如有争议请联系邮箱:BT9527#hotmail.com(#换成@)
3、如果您发现某页面或地址有错误,请联系站长邮箱BT9527#hotmail.com(#换成@),我们会尽快处理。您的热心是对BT9527电影天堂最大的支持。
4、本站建议去正规影院观看电影以支持电影行业发展。
最新回复 (0)

你可以在 登录 or 注册 后,对此帖发表评论!

返回
发新帖