热情如火[国英多音轨/中英字幕].Some.Like.It.Hot.1959.BluRay.1080p.x265.10bit.2Audio-MiniHD 8.04GB

版主小s 19天前 308



◎译  名 热情如火 / 热情似火 / 如此热辣
◎片  名 Some Like It Hot
◎年  代 1959
◎产  地 美国
◎类  别 喜剧
◎语  言 英语
◎上映日期 1959-03-29
◎IMDb链接 https://www.imdb.com/title/tt0053291/
◎豆瓣评分 8.9/10 (55004人评价)
◎豆瓣链接 https://movie.douban.com/subject/1292574/
◎片  长 120 分钟
◎导  演 比利·怀尔德 Billy Wilder (id:1054385)
◎编  剧 比利·怀尔德 Billy Wilder (id:1054385)
       I·A·L·戴蒙德 I.A.L. Diamond (id:1012655)
◎演  员 玛丽莲·梦露 Marilyn Monroe (id:1010505)
       托尼·柯蒂斯 Tony Curtis (id:1019051)
       杰克·莱蒙 Jack Lemmon (id:1007006)
       乔治·拉夫特 George Raft (id:1027949)
       帕特·奥布莱恩 Pat O'Brien (id:1054769)
       乔·E·布朗 Joe E. Brown (id:1027074)
       内赫米亚·佩尔索夫 Nehemiah Persoff (id:1134191)
       琼·肖丽 Joan Shawlee (id:1139633)
       乔治·E·斯通 George E. Stone (id:1156019)
       戴夫·巴里 Dave Barry (id:1063524)
       迈克·马祖尔凯 Mike Mazurki (id:1120651)
       哈里·威尔逊 Harry Wilson (id:1163554)
       贝弗利·威尔斯 Beverly Wills (id:1168559)
       芭芭拉·德鲁 Barbara Drew (id:1081602)
       小爱德华·G·罗宾逊 Edward G. Robinson Jr. (id:1139836)
       查尔斯·朗 Charles Lang (id:1104462)
       奥里-凯利 Orry-Kelly (id:1136914)
       约翰·威廉姆斯 John Williams (id:1054692)

◎简  介
  1930年代,动荡的芝加哥时常被强盗集团骚扰。乔(托尼?柯蒂斯)和杰利(杰克?莱蒙)本是乐团成员,两人因偶然目睹盗匪史巴克的手下在车库内射杀告密者而被穷追不舍。走投无路之下,他们男扮女装加入一女性乐团,并随该团来到迈阿密。                                    
                                该团中有位名叫秀珈(玛丽莲?梦露)的异常美丽性感女郎,乔晓得她一心想钓有钱人时,便化身石油王的公子企图得到她的芳心;另一面,杰利也对秀珈情有独钟,可是他却得到一位不知他是男儿身的富翁的不断纠缠,笑话迭生。不久,乔和杰利又遇史巴克一伙,只得再次逃亡,场面更加逗笑。

◎获奖情况 (共10项)
  第32届奥斯卡金像奖 (1960)
  最佳导演(提名)
   └──比利·怀尔德 (id:1054385)
  最佳男主角(提名)
   └──杰克·莱蒙 (id:1007006)
  最佳改编剧本(提名)
  黑白片最佳摄影(提名)
   └──查尔斯·朗 (id:1104462)
  黑白片最佳艺术指导和布景(提名)
  黑白片最佳服装设计
   └──奥里-凯利 (id:1136914)

  第20届威尼斯电影节 (1959)
  主竞赛单元 金狮奖 (提名)
   └──比利·怀尔德 (id:1054385)

  第17届金球奖 (1960)
  电影类 最佳喜剧片
  电影类 音乐/喜剧片最佳男主角
   └──杰克·莱蒙 (id:1007006)
  电影类 音乐/喜剧片最佳女主角
   └──玛丽莲·梦露 (id:1010505)

  1. ##### MediaInfo ######
  2. General
  3. Unique ID                                : 227397427388941457493578165769172337028 (0xAB1326C6A3B73A35BAE7CE1B2102C184)
  4. Complete name                            : Some.Like.It.Hot.1959.BluRay.1080p.x265.10bit.2Audio-MiniHD.mkv
  5. Format                                   : Matroska
  6. Format version                           : Version 4
  7. File size                                : 8.03 GiB
  8. Duration                                 : 2 h 1 min
  9. Overall bit rate                         : 9 463 kb/s
  10. Encoded date                             : UTC 2017-08-04 03:37:18
  11. Writing application                      : mkvmerge v11.0.0 ('Alive') 64bit
  12. Writing library                          : libebml v1.3.4 + libmatroska v1.4.5
  13. Attachments                              : 华文楷体.TTF / Cronos Pro Light Subhead.otf / Cronos Pro Subhead.otf
  14. Video
  15. ID                                       : 1
  16. Format                                   : HEVC
  17. Format/Info                              : High Efficiency Video Coding
  18. Codec ID                                 : V_MPEGH/ISO/HEVC
  19. Duration                                 : 2 h 1 min
  20. Bit rate                                 : 8 550 kb/s
  21. Width                                    : 1 790 pixels
  22. Height                                   : 1 080 pixels
  23. Display aspect ratio                     : 5:3
  24. Frame rate mode                          : Constant
  25. Frame rate                               : 23.976 (24000/1001/53354) FPS
  26. Bits/(Pixel*Frame)                       : 0.184
  27. Stream size                              : 7.26 GiB (90%)
  28. Default                                  : Yes
  29. Forced                                   : No
  30. Audio #1
  31. ID                                       : 2
  32. Format                                   : AC-3
  33. Format/Info                              : Audio Coding 3
  34. Commercial name                          : Dolby Digital
  35. Codec ID                                 : A_AC3
  36. Duration                                 : 2 h 1 min
  37. Bit rate mode                            : Constant
  38. Bit rate                                 : 640 kb/s
  39. Channel(s)                               : 6 channels
  40. Channel layout                           : L R C LFE Ls Rs
  41. Sampling rate                            : 48.0 kHz
  42. Frame rate                               : 31.250 FPS (1536 SPF)
  43. Compression mode                         : Lossy
  44. Delay relative to video                  : 542 ms
  45. Stream size                              : 556 MiB (7%)
  46. Language                                 : English
  47. Service kind                             : Complete Main
  48. Default                                  : Yes
  49. Forced                                   : No
  50. Audio #2
  51. ID                                       : 3
  52. Format                                   : AC-3
  53. Format/Info                              : Audio Coding 3
  54. Commercial name                          : Dolby Digital
  55. Codec ID                                 : A_AC3
  56. Duration                                 : 2 h 1 min
  57. Bit rate mode                            : Constant
  58. Bit rate                                 : 192 kb/s
  59. Channel(s)                               : 2 channels
  60. Channel layout                           : L R
  61. Sampling rate                            : 48.0 kHz
  62. Frame rate                               : 31.250 FPS (1536 SPF)
  63. Compression mode                         : Lossy
  64. Stream size                              : 167 MiB (2%)
  65. Language                                 : Chinese
  66. Service kind                             : Complete Main
  67. Default                                  : No
  68. Forced                                   : No
  69. Text #1
  70. ID                                       : 4
  71. Format                                   : PGS
  72. Muxing mode                              : zlib
  73. Codec ID                                 : S_HDMV/PGS
  74. Codec ID/Info                            : Picture based subtitle format used on BDs/HD-DVDs
  75. Duration                                 : 2 h 0 min
  76. Bit rate                                 : 17.1 kb/s
  77. Count of elements                        : 3570
  78. Stream size                              : 14.7 MiB (0%)
  79. Language                                 : English
  80. Default                                  : Yes
  81. Forced                                   : No
  82. Text #2
  83. ID                                       : 5
  84. Format                                   : PGS
  85. Muxing mode                              : zlib
  86. Codec ID                                 : S_HDMV/PGS
  87. Codec ID/Info                            : Picture based subtitle format used on BDs/HD-DVDs
  88. Duration                                 : 1 h 57 min
  89. Bit rate                                 : 24.1 kb/s
  90. Count of elements                        : 3172
  91. Stream size                              : 20.3 MiB (0%)
  92. Language                                 : Chinese
  93. Default                                  : No
  94. Forced                                   : No
  95. Text #3
  96. ID                                       : 6
  97. Format                                   : PGS
  98. Muxing mode                              : zlib
  99. Codec ID                                 : S_HDMV/PGS
  100. Codec ID/Info                            : Picture based subtitle format used on BDs/HD-DVDs
  101. Duration                                 : 2 h 0 min
  102. Bit rate                                 : 25.1 kb/s
  103. Count of elements                        : 3004
  104. Stream size                              : 21.6 MiB (0%)
  105. Language                                 : Chinese
  106. Default                                  : No
  107. Forced                                   : No
  108. Menu
  109. 00:00:00.000                             : en:Chapter 01
  110. 00:05:02.176                             : en:Chapter 02
  111. 00:11:56.173                             : en:Chapter 03
  112. 00:18:09.421                             : en:Chapter 04
  113. 00:23:59.896                             : en:Chapter 05
  114. 00:28:59.195                             : en:Chapter 06
  115. 00:34:49.796                             : en:Chapter 07
  116. 00:48:28.363                             : en:Chapter 08
  117. 00:57:17.642                             : en:Chapter 09
  118. 01:09:11.147                             : en:Chapter 10
  119. 01:17:25.349                             : en:Chapter 11
  120. 01:28:21.212                             : en:Chapter 12
  121. 01:34:24.116                             : en:Chapter 13
  122. 01:39:15.240                             : en:Chapter 14
  123. 01:48:53.109                             : en:Chapter 15
  124. 01:54:35.410                             : en:Chapter 16
  125. 02:01:31.075                             : en:Chapter 17
复制代码




TAGS 喜剧

磁力链:
  • magnet:?xt=urn:btih:B479722472404175A07ED37F50BDE9C9C20F0A38
上传的附件:
BT9527电影天堂 1、BT9527电影天堂提供的BT文件均来源于互联网抓取,只供网友学习交流、技术提升使用。
2、我们遵守BitTorrent点对点协议原则,任何版权问题请联系原资源发布商,我们不处理任何版权纠纷,谢谢!如有争议请联系邮箱:BT9527#hotmail.com(#换成@)
3、如果您发现某页面或地址有错误,请联系站长邮箱BT9527#hotmail.com(#换成@),我们会尽快处理。您的热心是对BT9527电影天堂最大的支持。
4、本站建议去正规影院观看电影以支持电影行业发展。
最新回复 (0)

你可以在 登录 or 注册 后,对此帖发表评论!

返回
发新帖