死亡谷[简繁英字幕].Death.Valley.2021.BluRay.1080p.DTS.HDMA5.1.x265.10bit-CTRLHD 4.61GB

版主小s 24天前 181



◎译  名 死亡谷 / Лощина мертвецов
◎片  名 Death Valley
◎年  代 2021
◎产  地 加拿大
◎类  别 动作 / 恐怖
◎语  言 英语
◎上映日期 2021-11-18(俄罗斯)
◎IMDb链接 https://www.imdb.com/title/tt14623762/
◎豆瓣评分 4.8/10 (154人评价)
◎豆瓣链接 https://movie.douban.com/subject/35669597/

◎简  介
  雇佣兵们去营救一名被囚禁在冷战遗存的地堡中的生物工程师。 在进入不祥的设施后,他们发现自己要为生命而战,因为他们遭到了一种未知的致命生物的攻击。

  1. ##### MediaInfo ######
  2. General
  3. Unique ID                                : 40733411525746223818204067157604798685 (0x1EA4F83E391951AC9FEFCDFF244390DD)
  4. Complete name                            : Death.Valley.2021.BluRay.1080p.DTS.HDMA5.1.x265.10bit-CTRLHD.mkv
  5. Format                                   : Matroska
  6. Format version                           : Version 4
  7. File size                                : 4.61 GiB
  8. Duration                                 : 1 h 33 min
  9. Overall bit rate mode                    : Variable
  10. Overall bit rate                         : 7 074 kb/s
  11. Encoded date                             : UTC 2022-06-06 02:55:03
  12. Writing application                      : mkvmerge v68.0.0.1 ('The Curtain') 64-bit
  13. Writing library                          : libebml v1.4.2 + libmatroska v1.6.4
  14. Video
  15. ID                                       : 1
  16. Format                                   : HEVC
  17. Format/Info                              : High Efficiency Video Coding
  18. Format profile                           : Main 10@L4@Main
  19. Codec ID                                 : V_MPEGH/ISO/HEVC
  20. Duration                                 : 1 h 33 min
  21. Bit rate                                 : 4 992 kb/s
  22. Width                                    : 1 920 pixels
  23. Height                                   : 800 pixels
  24. Display aspect ratio                     : 2.40:1
  25. Frame rate mode                          : Constant
  26. Frame rate                               : 23.976 (23976/1000/53354) FPS
  27. Color space                              : YUV
  28. Chroma subsampling                       : 4:2:0
  29. Bit depth                                : 10 bits
  30. Bits/(Pixel*Frame)                       : 0.136
  31. Stream size                              : 3.25 GiB (71%)
  32. Writing library                          : x265 3.5+36-9b59d4554:[Windows][GCC 11.2.0][64 bit] 10bit
  33. Encoding settings                        : cpuid=533541111039 / frame-threads=5 / numa-pools=32 / wpp / no-pmode / no-pme / no-psnr / no-ssim / log-level=2 / input-csp=1 / input-res=1920x800 / interlace=0 / total-frames=0 / level-idc=0 / high-tier=1 / uhd-bd=0 / ref=6 / no-allow-non-conformance / no-repeat-headers / annexb / no-aud / no-eob / no-eos / no-hrd / info / hash=0 / no-temporal-layers / no-open-gop / min-keyint=23 / keyint=250 / gop-lookahead=0 / bframes=12 / b-adapt=2 / b-pyramid / bframe-bias=0 / rc-lookahead=48 / lookahead-slices=5 / NTMzNTQ=uuDQuD2mJt9fsCf / scenecut=40 / no-hist-scenecut / radl=0 / no-splice / no-intra-refresh / ctu=64 / min-cu-size=8 / rect / amp / max-tu-size=32 / tu-inter-depth=1 / tu-intra-depth=1 / limit-tu=0 / rdoq-level=0 / dynamic-rd=0.00 / no-ssim-rd / signhide / no-tskip / nr-intra=0 / nr-inter=0 / no-constrained-intra / no-strong-intra-smoothing / max-merge=3 / limit-refs=1 / no-limit-modes / me=3 / subme=7 / merange=64 / temporal-mvp / no-frame-dup / no-hme / weightp / weightb / no-analyze-src-pics / deblock=0:0 / no-sao / no-sao-non-deblock / rd=4 / selective-sao=0 / early-skip / rskip / no-fast-intra / no-tskip-fast / no-cu-lossless / b-intra / no-splitrd-skip / rdpenalty=0 / psy-rd=2.00 / psy-rdoq=0.00 / no-rd-refine / no-lossless / cbqpoffs=0 / crqpoffs=0 / rc=crf / crf=15.0 / qcomp=0.60 / qpstep=4 / stats-write=0 / stats-read=0 / ipratio=1.40 / pbratio=1.30 / aq-mode=1 / aq-strength=1.00 / cutree / zone-count=0 / no-strict-cbr / qg-size=32 / no-rc-grain / qpmax=69 / qpmin=0 / no-const-vbv / sar=0 / overscan=0 / videoformat=5 / range=0 / colorprim=2 / transfer=2 / colormatrix=2 / chromaloc=0 / display-window=0 / cll=0,0 / min-luma=0 / max-luma=1023 / log2-max-poc-lsb=8 / vui-timing-info / vui-hrd-info / slices=1 / no-opt-qp-pps / no-opt-ref-list-length-pps / no-multi-pass-opt-rps / scenecut-bias=0.05 / hist-threshold=0.03 / no-opt-cu-delta-qp / aq-motion / no-hdr10 / no-hdr10-opt / no-dhdr10-opt / no-idr-recovery-sei / analysis-reuse-level=0 / analysis-save-reuse-level=0 / analysis-load-reuse-level=0 / scale-factor=0 / refine-intra=0 / refine-inter=0 / refine-mv=1 / refine-ctu-distortion=0 / no-limit-sao / ctu-info=0 / no-lowpass-dct / refine-analysis-type=0 / copy-pic=1 / max-ausize-factor=1.0 / no-dynamic-refine / no-single-sei / no-hevc-aq / no-svt / no-field / qp-adaptation-range=1.00 / scenecut-aware-qp=0conformance-window-offsets / right=0 / bottom=0 / NTMzNTQ= / decoder-max-rate=0 / no-vbv-live-multi-pass
  34. Default                                  : Yes
  35. Forced                                   : No
  36. Audio
  37. ID                                       : 2
  38. ID in the original source medium         : 4352 (0x1100)
  39. Format                                   : DTS XLL
  40. Format/Info                              : Digital Theater Systems
  41. Commercial name                          : DTS-HD Master Audio
  42. Codec ID                                 : A_DTS
  43. Duration                                 : 1 h 33 min
  44. Bit rate mode                            : Variable
  45. Bit rate                                 : 1 939 kb/s
  46. Channel(s)                               : 6 channels
  47. Channel layout                           : C L R Ls Rs LFE
  48. Sampling rate                            : 48.0 kHz
  49. Frame rate                               : 93.750 FPS (512 SPF)
  50. Bit depth                                : 16 bits
  51. Compression mode                         : Lossless
  52. Stream size                              : 1.26 GiB (27%)
  53. Language                                 : English
  54. Default                                  : Yes
  55. Forced                                   : No
  56. Original source medium                   : Blu-ray
  57. Text #1
  58. ID                                       : 3
  59. ID in the original source medium         : 4609 (0x1201)
  60. Format                                   : PGS
  61. Muxing mode                              : zlib
  62. Codec ID                                 : S_HDMV/PGS
  63. Codec ID/Info                            : Picture based subtitle format used on BDs/HD-DVDs
  64. Duration                                 : 1 h 29 min
  65. Bit rate                                 : 21.3 kb/s
  66. Count of elements                        : 2024
  67. Stream size                              : 13.7 MiB (0%)
  68. Title                                    : 简体字幕【黑边】
  69. Language                                 : Chinese
  70. Default                                  : Yes
  71. Forced                                   : No
  72. Original source medium                   : Blu-ray
  73. Text #2
  74. ID                                       : 4
  75. ID in the original source medium         : 4610 (0x1202)
  76. Format                                   : PGS
  77. Muxing mode                              : zlib
  78. Codec ID                                 : S_HDMV/PGS
  79. Codec ID/Info                            : Picture based subtitle format used on BDs/HD-DVDs
  80. Duration                                 : 1 h 29 min
  81. Bit rate                                 : 22.2 kb/s
  82. Count of elements                        : 2024
  83. Stream size                              : 14.2 MiB (0%)
  84. Title                                    : 繁体字幕【黑边】
  85. Language                                 : Chinese
  86. Default                                  : Yes
  87. Forced                                   : No
  88. Original source medium                   : Blu-ray
  89. Text #3
  90. ID                                       : 5
  91. ID in the original source medium         : 4611 (0x1203)
  92. Format                                   : PGS
  93. Muxing mode                              : zlib
  94. Codec ID                                 : S_HDMV/PGS
  95. Codec ID/Info                            : Picture based subtitle format used on BDs/HD-DVDs
  96. Duration                                 : 1 h 29 min
  97. Bit rate                                 : 39.4 kb/s
  98. Count of elements                        : 2024
  99. Stream size                              : 25.3 MiB (1%)
  100. Title                                    : 简英字幕【黑边】
  101. Language                                 : Chinese
  102. Default                                  : Yes
  103. Forced                                   : No
  104. Original source medium                   : Blu-ray
  105. Text #4
  106. ID                                       : 6
  107. ID in the original source medium         : 4612 (0x1204)
  108. Format                                   : PGS
  109. Muxing mode                              : zlib
  110. Codec ID                                 : S_HDMV/PGS
  111. Codec ID/Info                            : Picture based subtitle format used on BDs/HD-DVDs
  112. Duration                                 : 1 h 29 min
  113. Bit rate                                 : 40.3 kb/s
  114. Count of elements                        : 2024
  115. Stream size                              : 25.8 MiB (1%)
  116. Title                                    : 繁英字幕【黑边】
  117. Language                                 : Chinese
  118. Default                                  : Yes
  119. Forced                                   : No
  120. Original source medium                   : Blu-ray
  121. Text #5
  122. ID                                       : 7
  123. ID in the original source medium         : 4613 (0x1205)
  124. Format                                   : PGS
  125. Muxing mode                              : zlib
  126. Codec ID                                 : S_HDMV/PGS
  127. Codec ID/Info                            : Picture based subtitle format used on BDs/HD-DVDs
  128. Duration                                 : 1 h 29 min
  129. Bit rate                                 : 21.3 kb/s
  130. Count of elements                        : 2024
  131. Stream size                              : 13.7 MiB (0%)
  132. Title                                    : 简体字幕【画内】
  133. Language                                 : Chinese
  134. Default                                  : Yes
  135. Forced                                   : No
  136. Original source medium                   : Blu-ray
  137. Text #6
  138. ID                                       : 8
  139. ID in the original source medium         : 4614 (0x1206)
  140. Format                                   : PGS
  141. Muxing mode                              : zlib
  142. Codec ID                                 : S_HDMV/PGS
  143. Codec ID/Info                            : Picture based subtitle format used on BDs/HD-DVDs
  144. Duration                                 : 1 h 29 min
  145. Bit rate                                 : 22.2 kb/s
  146. Count of elements                        : 2024
  147. Stream size                              : 14.2 MiB (0%)
  148. Title                                    : 繁体字幕【画内】
  149. Language                                 : Chinese
  150. Default                                  : Yes
  151. Forced                                   : No
  152. Original source medium                   : Blu-ray
  153. Text #7
  154. ID                                       : 9
  155. ID in the original source medium         : 4615 (0x1207)
  156. Format                                   : PGS
  157. Muxing mode                              : zlib
  158. Codec ID                                 : S_HDMV/PGS
  159. Codec ID/Info                            : Picture based subtitle format used on BDs/HD-DVDs
  160. Duration                                 : 1 h 29 min
  161. Bit rate                                 : 39.4 kb/s
  162. Count of elements                        : 2024
  163. Stream size                              : 25.3 MiB (1%)
  164. Title                                    : 简英字幕【画内】
  165. Language                                 : Chinese
  166. Default                                  : Yes
  167. Forced                                   : No
  168. Original source medium                   : Blu-ray
  169. Text #8
  170. ID                                       : 10
  171. ID in the original source medium         : 4616 (0x1208)
  172. Format                                   : PGS
  173. Muxing mode                              : zlib
  174. Codec ID                                 : S_HDMV/PGS
  175. Codec ID/Info                            : Picture based subtitle format used on BDs/HD-DVDs
  176. Duration                                 : 1 h 29 min
  177. Bit rate                                 : 40.3 kb/s
  178. Count of elements                        : 2024
  179. Stream size                              : 25.8 MiB (1%)
  180. Title                                    : 繁英字幕【画内】
  181. Language                                 : Chinese
  182. Default                                  : Yes
  183. Forced                                   : No
  184. Original source medium                   : Blu-ray
  185. Text #9
  186. ID                                       : 11
  187. ID in the original source medium         : 4608 (0x1200)
  188. Format                                   : PGS
  189. Muxing mode                              : zlib
  190. Codec ID                                 : S_HDMV/PGS
  191. Codec ID/Info                            : Picture based subtitle format used on BDs/HD-DVDs
  192. Duration                                 : 1 h 32 min
  193. Bit rate                                 : 37.3 kb/s
  194. Count of elements                        : 2568
  195. Stream size                              : 24.7 MiB (1%)
  196. Title                                    : ENG
  197. Language                                 : English
  198. Default                                  : Yes
  199. Forced                                   : No
  200. Original source medium                   : Blu-ray
  201. Menu
  202. 00:00:00.000                             : en:第 01 章
  203. 00:08:15.995                             : en:第 02 章
  204. 00:17:30.173                             : en:第 03 章
  205. 00:28:29.749                             : en:第 04 章
  206. 00:40:29.050                             : en:第 05 章
  207. 00:51:15.697                             : en:第 06 章
  208. 01:03:03.112                             : en:第 07 章
  209. 01:14:29.881                             : en:第 08 章
  210. 01:20:08.552                             : en:第 09 章
复制代码




TAGS 动作 恐怖 /

磁力链:
  • magnet:?xt=urn:btih:3FFA378F2328C083AADACFF60158D56F73FE8373
上传的附件:
BT9527电影天堂 1、BT9527电影天堂提供的BT文件均来源于互联网抓取,只供网友学习交流、技术提升使用。
2、我们遵守BitTorrent点对点协议原则,任何版权问题请联系原资源发布商,我们不处理任何版权纠纷,谢谢!如有争议请联系邮箱:BT9527#hotmail.com(#换成@)
3、如果您发现某页面或地址有错误,请联系站长邮箱BT9527#hotmail.com(#换成@),我们会尽快处理。您的热心是对BT9527电影天堂最大的支持。
4、本站建议去正规影院观看电影以支持电影行业发展。
最新回复 (0)

你可以在 登录 or 注册 后,对此帖发表评论!

返回
发新帖