致命少女姬[杜比视界版本][国语配音/中文字幕].Revenge.Girl.2022.2160p.WEB-DL.H265.DV.AAC-HDBWEB 5.12GB

版主小s 19天前 353



◎译  名 致命少女姬 / 致命少女
◎年  代 2022
◎产  地 中国大陆
◎类  别 剧情 / 动作 / 科幻 / 悬疑
◎语  言 汉语普通话
◎上映日期 2022-05-25(中国大陆网络)
◎IMDb链接 https://www.imdb.com/title//
◎豆瓣链接 https://movie.douban.com/subject/35510778/
◎演  员 梁龙 Long Liang (id:1364246)
       叶璇 Michelle Ye (id:1005537)
       张祎曈 Yitong Zhang (id:1418982)
       陆思恒 Louis (id:1414629)
       胡浩帆 Hubert.Hu (id:1409428)

◎简  介
  电影讲述了未来世界,人工智能高速发展,程非(梁龙 饰)为牟取暴利研制激发异能人的芯片,导致千鹤(张祎曈 饰)母亲牺牲。逃出生天的千鹤为给母亲复仇,以身涉险对抗程非一众恶势力,危急关头激发身体异能,发现了隐藏十年的秘密.....

  1. ##### MediaInfo ######
  2. General
  3. Complete name                            : 致命少女姬.Revenge.Girl.2022.2160p.WEB-DL.H265.DV.AAC-HDBWEB.mp4
  4. Format                                   : MPEG-4
  5. Format profile                           : Base Media / Version 2
  6. Codec ID                                 : mp42 (mp42/iso6/isom/msdh/dby1)
  7. File size                                : 5.11 GiB
  8. Duration                                 : 1 h 24 min
  9. Overall bit rate mode                    : Variable
  10. Overall bit rate                         : 8 696 kb/s
  11. Encoded date                             : UTC 2022-06-05 10:46:12
  12. Tagged date                              : UTC 2022-06-05 10:46:12
  13. Video
  14. ID                                       : 1
  15. Format                                   : HEVC
  16. Format/Info                              : High Efficiency Video Coding
  17. Format profile                           : Main 10@L5@Main
  18. HDR format                               : Dolby Vision, Version 1.0, dvhe.05.06, BL+RPU
  19. Codec ID                                 : dvhe
  20. Codec ID/Info                            : High Efficiency Video Coding with Dolby Vision
  21. Duration                                 : 1 h 24 min
  22. Bit rate                                 : 8 438 kb/s
  23. Width                                    : 3 840 pixels
  24. Height                                   : 1 632 pixels
  25. Display aspect ratio                     : 2.35:1
  26. Frame rate mode                          : Constant
  27. Frame rate                               : 25.000 FPS
  28. Color space                              : YUV
  29. Chroma subsampling                       : 4:2:0
  30. Bit depth                                : 10 bits
  31. Bits/(Pixel*Frame)                       : 0.054
  32. Stream size                              : 4.96 GiB (97%)
  33. Default                                  : Yes
  34. Alternate group                          : 1
  35. Encoded date                             : UTC 2022-06-05 10:46:12
  36. Tagged date                              : UTC 2022-06-05 10:46:12
  37. Color range                              : Full
  38. Codec configuration box                  : hvcC+dvcC
  39. Audio
  40. ID                                       : 2
  41. Format                                   : AAC LC
  42. Format/Info                              : Advanced Audio Codec Low Complexity
  43. Codec ID                                 : mp4a-40-2
  44. Duration                                 : 1 h 24 min
  45. Bit rate mode                            : Variable
  46. Bit rate                                 : 253 kb/s
  47. Maximum bit rate                         : 258 kb/s
  48. Channel(s)                               : 2 channels
  49. Channel layout                           : L R
  50. Sampling rate                            : 48.0 kHz
  51. Frame rate                               : 46.875 FPS (1024 SPF)
  52. Compression mode                         : Lossy
  53. Stream size                              : 153 MiB (3%)
  54. Language                                 : Chinese
  55. Default                                  : Yes
  56. Alternate group                          : 2
  57. Encoded date                             : UTC 2022-06-05 10:46:12
  58. Tagged date                              : UTC 2022-06-05 10:46:12
复制代码




TAGS 动作 剧情 悬疑 科幻 /

磁力链:
  • magnet:?xt=urn:btih:3E549ADAD099A975988DA05B785B4C0198D98CF3
上传的附件:
BT9527电影天堂 1、BT9527电影天堂提供的BT文件均来源于互联网抓取,只供网友学习交流、技术提升使用。
2、我们遵守BitTorrent点对点协议原则,任何版权问题请联系原资源发布商,我们不处理任何版权纠纷,谢谢!如有争议请联系邮箱:BT9527#hotmail.com(#换成@)
3、如果您发现某页面或地址有错误,请联系站长邮箱BT9527#hotmail.com(#换成@),我们会尽快处理。您的热心是对BT9527电影天堂最大的支持。
4、本站建议去正规影院观看电影以支持电影行业发展。
最新回复 (0)

你可以在 登录 or 注册 后,对此帖发表评论!

返回
发新帖