燃野少年的天空[杜比视界版本][国语配音/中文字幕].The.Day.We.Lit.Up.the.Sky.2021.2160p.WEB-DL.H265.DV.DDP5.1.Atmos-HDBWEB 6.61GB

版主小s 4月前 286



◎译  名 燃野少年的天空 / The Day We Lit Up The Sky
◎年  代 2021
◎产  地 中国大陆
◎类  别 喜剧 / 歌舞
◎语  言 汉语普通话
◎上映日期 2021-07-17(中国大陆)
◎IMDb链接 https://www.imdb.com/title/tt14866426/
◎豆瓣评分 4.5/10 (57761人评价)
◎豆瓣链接 https://movie.douban.com/subject/35256235/
◎片  长 108分钟
◎导  演 张一白 Yibai Zhang (id:1275554)
       韩琰 Yan Han (id:1365296)
◎编  剧 里则林 Zelin Li (id:1410023)
◎演  员 彭昱畅 Yuchang Peng (id:1354775)
       许恩怡 Enyi Xu (id:1458164)
       张宥浩 Youhao Zhang (id:1357957)
       尹正 Zheng Yin (id:1332934)
       孙芮 Rui Sun (id:1354601)
       斯外戈 Zhi Liu (id:1408891)
       廖月颖 Yueying Liao (id:1458165)
       胡宇轩 Yuxuan Hu (id:1395348)
       李若彤 Carman Lee (id:1023476)
       乔杉 Shan Qiao (id:1316368)
       刘敏涛 Mintao Liu (id:1318610)
       黄觉 Jue Huang (id:1275273)
       张译 Yi Zhang (id:1274761)
       刘仪伟 Yiwei Liu (id:1315726)
       梁静 Jing Liang (id:1274641)
       景岗山 Gangshan Jing (id:1313351)
       霍思燕 Siyan Huo (id:1000145)
       蔡一智 Calvin Choi (id:1015990)
       唐诗逸 Shiyi Tang (id:1377887)
       谢楠 Nan Xie (id:1313761)
       郑秀文 Sammi Cheng (id:1023284)
       梁靖康 Jingkang Liang (id:1370070)
       李庚希 Gengxi Li (id:1376310)
       马伯骞 Victor Ma (id:1378212)
       刘艺晨 Yichen Liu (id:1458230)
       米译民 YiMin (id:1460045)
       周大熊 ZhouDaXiong (id:1460047)
       彭西 Peng Xi (id:1460928)
       张亚东 Yadong Zhang (id:1313093)
       希林娜依·高 Curley G (id:1435600)
       尤长靖 Azora Chin (id:1392196)
       周深 Shen Zhou (id:1366895)
       余静萍 Ching Ping Yu (id:1363692)
       牛牛 Niu Niu (id:1375662)
       翟韬 Tao Zhai (id:1378371)
       吴里璐 Dora Ng (id:1289270)
       蔡婧 Cheldon Cai (id:1451004)

◎简  介
  只身来到海南复读的老狗(彭昱畅 饰),结识了一群臭味相投的“咸鱼少年”,遇见了一群参差不齐的“杂草少女”,缺乏自知之明的他们,要一起参加舞动奇迹大赛。他们迈过偏见与隔阂、战胜自卑和怯懦,放飞青春、肆意起舞,燃过烈日颱风,野遍大街小巷!这个夏天,一起跳舞吧!

  1. ##### MediaInfo ######
  2. General
  3. Complete name                            : 燃野少年的天空.The.Day.We.Lit.Up.the.Sky.2021.2160p.WEB-DL.H265.DV.DDP5.1.Atmos-HDBWEB.mp4
  4. Format                                   : MPEG-4
  5. Format profile                           : Base Media / Version 2
  6. Codec ID                                 : mp42 (mp42/iso6/isom/msdh/dby1)
  7. File size                                : 6.61 GiB
  8. Duration                                 : 1 h 47 min
  9. Overall bit rate                         : 8 776 kb/s
  10. Encoded date                             : UTC 2022-06-06 04:20:17
  11. Tagged date                              : UTC 2022-06-06 04:20:17
  12. Video
  13. ID                                       : 1
  14. Format                                   : HEVC
  15. Format/Info                              : High Efficiency Video Coding
  16. Format profile                           : Main 10@L5@Main
  17. HDR format                               : Dolby Vision, Version 1.0, dvhe.05.06, BL+RPU
  18. Codec ID                                 : dvhe
  19. Codec ID/Info                            : High Efficiency Video Coding with Dolby Vision
  20. Duration                                 : 1 h 47 min
  21. Bit rate                                 : 8 069 kb/s
  22. Width                                    : 3 840 pixels
  23. Height                                   : 1 624 pixels
  24. Original height                          : 1 620 pixels
  25. Display aspect ratio                     : 2.40:1
  26. Frame rate mode                          : Constant
  27. Frame rate                               : 24.000 FPS
  28. Color space                              : YUV
  29. Chroma subsampling                       : 4:2:0
  30. Bit depth                                : 10 bits
  31. Bits/(Pixel*Frame)                       : 0.054
  32. Stream size                              : 6.08 GiB (92%)
  33. Default                                  : Yes
  34. Alternate group                          : 1
  35. Encoded date                             : UTC 2022-06-06 04:20:17
  36. Tagged date                              : UTC 2022-06-06 04:20:17
  37. Color range                              : Full
  38. Codec configuration box                  : hvcC+dvcC
  39. Audio #1
  40. ID                                       : 2
  41. Format                                   : E-AC-3 JOC
  42. Format/Info                              : Enhanced AC-3 with Joint Object Coding
  43. Commercial name                          : Dolby Digital Plus with Dolby Atmos
  44. Codec ID                                 : ac-3
  45. Duration                                 : 1 h 47 min
  46. Bit rate mode                            : Constant
  47. Bit rate                                 : 448 kb/s
  48. Channel(s)                               : 6 channels
  49. Channel layout                           : L R C LFE Ls Rs
  50. Sampling rate                            : 48.0 kHz
  51. Frame rate                               : 31.250 FPS (1536 SPF)
  52. Compression mode                         : Lossy
  53. Stream size                              : 345 MiB (5%)
  54. Language                                 : Chinese
  55. Service kind                             : Complete Main
  56. Default                                  : Yes
  57. Alternate group                          : 2
  58. Encoded date                             : UTC 2022-06-06 04:20:17
  59. Tagged date                              : UTC 2022-06-06 04:20:17
  60. Complexity index                         : Not present / 16
  61. Number of dynamic objects                : 15
  62. Bed channel count                        : 1 channel
  63. Bed channel configuration                : LFE
  64. Audio #2
  65. ID                                       : 3
  66. Format                                   : E-AC-3
  67. Format/Info                              : Enhanced AC-3
  68. Commercial name                          : Dolby Digital Plus
  69. Codec ID                                 : ac-3
  70. Duration                                 : 1 h 47 min
  71. Bit rate mode                            : Constant
  72. Bit rate                                 : 256 kb/s
  73. Channel(s)                               : 2 channels
  74. Channel layout                           : L R
  75. Sampling rate                            : 48.0 kHz
  76. Frame rate                               : 31.250 FPS (1536 SPF)
  77. Compression mode                         : Lossy
  78. Stream size                              : 197 MiB (3%)
  79. Language                                 : Chinese
  80. Service kind                             : Complete Main
  81. Default                                  : No
  82. Alternate group                          : 2
  83. Encoded date                             : UTC 2022-06-06 04:20:17
  84. Tagged date                              : UTC 2022-06-06 04:20:17
复制代码




TAGS 喜剧 歌舞 /

磁力链:
  • magnet:?xt=urn:btih:41E6C63E6F0E214611DFDCB70E732738CFF2A556
上传的附件:
BT9527电影天堂 1、BT9527电影天堂提供的BT文件均来源于互联网抓取,只供网友学习交流、技术提升使用。
2、我们遵守BitTorrent点对点协议原则,任何版权问题请联系原资源发布商,我们不处理任何版权纠纷,谢谢!如有争议请联系邮箱:BT9527#hotmail.com(#换成@)
3、如果您发现某页面或地址有错误,请联系站长邮箱BT9527#hotmail.com(#换成@),我们会尽快处理。您的热心是对BT9527电影天堂最大的支持。
4、本站建议去正规影院观看电影以支持电影行业发展。
最新回复 (0)

你可以在 登录 or 注册 后,对此帖发表评论!

返回
发新帖