时间机器[简繁英字幕].The.Time.Machine.2002.BluRay.1080p.TrueHD.5.1.x265.10bit-ALT 10.63GB

版主小s 28天前 175



◎译  名 时间机器 / 时光机器 / 时光凶间 / Máquina del tiempo, La
◎片  名 The Time Machine
◎年  代 2002
◎产  地 美国
◎类  别 动作 / 科幻 / 冒险
◎语  言 英语
◎上映日期 2002-03-08(美国)
◎IMDb链接 https://www.imdb.com/title/tt0268695/
◎豆瓣评分 7.0/10 (24131人评价)
◎豆瓣链接 https://movie.douban.com/subject/1306609/
◎片  长 96 分钟
◎导  演 西蒙·威尔斯 Simon Wells (id:1300686)
◎编  剧 大卫·邓肯 David Duncan (id:1006094)
       赫伯特·乔治·威尔斯 H.G. Wells (id:1050104)
       约翰·洛根 John Logan (id:1118279)
◎演  员 盖·皮尔斯 Guy Pearce (id:1035672)
       萨曼莎·穆巴 Samantha Mumba (id:1014020)
       马克·阿蒂 Mark Addy (id:1013813)
       西耶娜·盖尔利 Sienna Guillory (id:1031810)
       Edward Conna Edward Conna (id:1019658)
       亚历克斯·麦迪逊 Alex Madison (id:1302406)
       艾伦·扬 Alan Young (id:1041255)
       杰瑞米·艾恩斯 Jeremy Irons (id:1031216)
       约翰·科耶马 John Koyama (id:1114607)
       小泽吉郎 Yoshio Iizuka (id:1303940)
       道格·琼斯 Doug Jones (id:1019031)
       Clint Lilley Clint Lilley (id:1290057)
       幸田宏 Hiro Koda (id:1005606)
       乔伊·阿那亚 Joey Anaya (id:1407360)
       杨希·亚瑞斯 Yancey Arias (id:1010700)
       戴安娜·李·伊诺桑托 Diana Lee Inosanto (id:1018320)
       凡尼莎·威尔拉 Vanessa Viola (id:1018526)
       菲丽达·劳 Phyllida Law (id:1048232)
       Michael Chaturantabut Michael Chaturantabut (id:1072575)
       Omero Mumba Omero Mumba (id:1136707)
       马克·库布尔 Mark Kubr (id:1289072)
       Jacob Chambers Jacob Chambers (id:1280404)
       理查德·赛特伦 Richard Cetrone (id:1280368)
        Aaron Patrick Freeman (id:1231702)
        Paul Oliver (id:1225492)
       佩特拉·斯普雷彻 Petra Sprecher (id:1217383)
       杰罗米菲茨杰罗德 Jeremy Fitzgerald (id:1283808)
       Efia Pearson Efia Pearson (id:1183186)
       琼·瓦勒拉 Jon Valera (id:1157935)
       乔什·斯坦伯 Josh Stamberg (id:1152605)
       Kevin McTurk Kevin McTurk (id:1116709)
       Chona Jason Chona Jason (id:1106507)
       格雷迪·霍德尔 Grady Holder (id:1094670)
       布莱恩·法里戴 Bryan Friday (id:1080390)
       奥兰多·琼斯 Orlando Jones (id:1000195)
       敏迪·克里斯特 Myndy Crist (id:1073832)
       乔纳森·埃斯比奥 Jonathan Eusebio (id:1283325)
       沃尔特·F·帕克斯 Walter F. Parkes (id:1000634)
       约翰·洛根 John Logan (id:1118279)
       阿诺德·莱鲍维特 Arnold Leibovit (id:1019869)
       大卫·瓦尔德 David Valdes (id:1299783)
       劳里·麦克唐纳 Laurie MacDonald (id:1290620)
       克劳斯·巴代特 Klaus Badelt (id:1018241)
       唐纳德·麦卡尔平 Donald McAlpine (id:1276558)
       明迪·马丁 Mindy Marin (id:1291003)
       Donald B. Woodruff Donald B. Woodruff (id:1276364)
       Bruce Robert Hill Bruce Robert Hill (id:1020031)
       维克多·J·佐尔福 Victor J. Zolfo (id:1301778)
       克里斯托弗·布里安-莫尔 Christopher Burian-Mohr (id:1279638)
       奥利弗·肖尔 Oliver Scholl (id:1421437)
       鲍勃·林伍德 Bob Ringwood (id:1295678)
       Deena Appel Deena Appel (id:1277319)
       布拉德利·斯坦森 Bradley Stenson (id:1157471)
       小约翰·M·艾略特 John M. Elliott Jr. (id:1283124)
       Margaret E. Elliott Margaret E. Elliott (id:1283123)
       杰克·加伯 Jake Garber (id:1098012)
       Alan Tuskes Alan Tuskes (id:1012895)
       Cheri Ruff Cheri Ruff (id:1296306)
       Scott H. Eddo Scott H. Eddo (id:1089511)
       理查德·斯奈尔 Richard Snell (id:1154637)
       里克·斯特拉顿 Rick Stratton (id:1298538)
       阿因·图腾 Arjen Tuiten (id:1215170)
       格雷格·尼尔森 Greg Nelson (id:1293037)
       Nanci Cascio Nanci Cascio (id:1197685)
       Shirley Dolle Shirley Dolle (id:1282549)
       巴巴拉·洛伦兹 Barbara Lorenz (id:1290317)
       格里高利·尼克特洛 Gregory Nicotero (id:1128804)
       Stephen Elsbree Stephen Elsbree (id:1283159)
       扎卡里·科尔 Zachary Cole (id:1169413)
       加曼·黑日格施塔德 Garman Herigstad (id:1179544)
       马库斯·库尔茨 Markus Kurtz (id:1179672)
       Jill Berger Jill Berger (id:1181618)
       Aaron James McComas Aaron James McComas (id:1103899)
       埃里克·纳什 Erik Nash (id:1292926)
       Bernardo Jauregui Bernardo Jauregui (id:1184194)
       乔治·斯蒂文斯 George Stevens (id:1159310)
       布莱德利·帕克 Bradley Parker (id:1293972)
       Luke Scully Luke Scully (id:1143307)
       Rod Ripley Rod Ripley (id:1140137)
       丹·帕特森 Dan Patterson (id:1207087)
       Howie Muzika Howie Muzika (id:1135423)
       Aladino V. Debert Aladino V. Debert (id:1086598)
       Richard Patterson Richard Patterson (id:1294096)
       David Prescott David Prescott (id:1294866)
       David Latour David Latour (id:1106428)
       Amanda Burton Amanda Burton (id:1192204)
       Raleigh Mann Raleigh Mann (id:1193441)
       Lynn Ledgerwood Lynn Ledgerwood (id:1289637)
       Michael Kory Michael Kory (id:1288909)
       Stephanie Hornish Stephanie Hornish (id:1286927)
       肖恩·安德鲁·法登 Sean Andrew Faden (id:1283408)
       Aaron Ferguson Aaron Ferguson (id:1283576)
       克拉斯·汉克 Claas Henke (id:1286435)
       David Gainey David Gainey (id:1284396)
       容.格瑞斯 Ron Gress (id:1285436)
       Julian Levi Julian Levi (id:1289876)
       Sonja Burchard Sonja Burchard (id:1279625)
       马米·麦卡尔 Mamie McCall (id:1291435)
       Mike Makara Mike Makara (id:1210824)
       Lee Croft Lee Croft (id:1215427)
        Natasha Rand (id:1222761)
       萨姆·爱德华兹 Sam Edwards (id:1224117)
       Kimberly K. Nelson Kimberly K. Nelson (id:1276654)
       托马斯·J·史密斯 Thomas J. Smith (id:1276658)
       汤姆·柏提诺 Tom Bertino (id:1278530)
       布莱恩·吉尔 Bryan Grill (id:1285480)
       艾伦·卡波勒 Alan Kapler (id:1102805)
       斯科特·埃德斯坦 Scott Edelstein (id:1414097)
       Paul Anderson Paul Anderson (id:1057626)
       Pamela Choules Pamela Choules (id:1054990)
       C. Andrew Nelson C. Andrew Nelson (id:1054617)
       肖恩·迪韦罗 Sean Devereaux (id:1051947)
       Bill Taylor Bill Taylor (id:1298968)
       Mike Wassel Mike Wassel (id:1300479)
       Syd Dutton Syd Dutton (id:1038517)
       David S. Williams Jr. David S. Williams Jr. (id:1300940)
       Chris Y. Yang Chris Y. Yang (id:1301404)
       乔纳森·埃格斯塔德 Jonathan Egstad (id:1030205)
       克里斯·道森 Chris Dawson (id:1021167)
       Stephan Martinière Stephan Martinière (id:1302767)
       John Hart John Hart (id:1304897)
       Ryo Sakaguchi Ryo Sakaguchi (id:1304928)
       Daveed Shwartz Daveed Shwartz (id:1304929)
       John Michael Courte John Michael Courte (id:1077182)
       Bernd Angerer Bernd Angerer (id:1059164)
       Tony Anderson Tony Anderson (id:1059985)
       Robert Hoffmeister Robert Hoffmeister (id:1099300)
       肯尼斯·史密斯 Kenneth Smith (id:1297900)
       斯科特·斯奎尔斯 Scott Squires (id:1298205)
       Tom St. Amand Tom St. Amand (id:1298210)
       Peter Baustaedter Peter Baustaedter (id:1065508)
       布赖恩·贝根 Brian Begun (id:1063728)
       布莱恩·佩亚特 Brian Peyatt (id:1062695)

◎简  介
  亚历山大(盖·皮尔斯 Guy Pearce 饰)博士是一位狂热的科学爱好者,他一直想证明时间旅行是可行的,并将全部的精力都投放到了时间机器的研究中。可是一天,未婚妻的意外离世让他悲愤不已,并加紧了时间机器的研制,希望能重返过去,拯救未婚妻的生命。时光机研制成功,亚历山大成功穿越到了过去,亲眼目睹了未婚妻的意外事故。可是无论他回到过去多少次,都没有办法救回未婚妻,未婚妻都会因为各种意外事故身亡。问题,到底出在了什么地方?亚历山大为了解开这个谜,将寻找答案的希望放在了过去。不停的穿越,不停的前往未来寻找答案……直到八十万年后的地球,亚历山大发现,人类已经进化到跟现在完全不一样。而那时的地球上分为了两个派系爱好和平的伊莱人和好战的莫洛人,为了帮助伊莱人摆脱莫洛人的统治,亚历山大不惜毁掉时光机,而他也发现了最终的秘密。

◎获奖情况 (共1项)
  第75届奥斯卡金像奖 (2003)
  最佳化妆(提名)

  1. ##### MediaInfo ######
  2. General
  3. Unique ID                                : 58316106165529081751899658185971974513 (0x2BDF4604C77DBD6019753A3FBA1DC171)
  4. Complete name                            : The.Time.Machine.2002.BluRay.1080p.TrueHD.5.1.x265.10bit-ALT.mkv
  5. Format                                   : Matroska
  6. Format version                           : Version 4
  7. File size                                : 10.6 GiB
  8. Duration                                 : 1 h 35 min
  9. Overall bit rate mode                    : Variable
  10. Overall bit rate                         : 15.9 Mb/s
  11. Encoded date                             : UTC 2022-06-06 02:37:47
  12. Writing application                      : mkvmerge v49.0.0 ('Sick Of Losing Soulmates') 64-bit
  13. Writing library                          : libebml v1.4.0 + libmatroska v1.6.1
  14. Video
  15. ID                                       : 1
  16. Format                                   : HEVC
  17. Format/Info                              : High Efficiency Video Coding
  18. Format profile                           : Main 10@L5.1@High
  19. Codec ID                                 : V_MPEGH/ISO/HEVC
  20. Duration                                 : 1 h 35 min
  21. Bit rate                                 : 10.7 Mb/s
  22. Width                                    : 1 920 pixels
  23. Height                                   : 800 pixels
  24. Display aspect ratio                     : 2.40:1
  25. Frame rate mode                          : Constant
  26. Frame rate                               : 23.976 (24000/1001/53354) FPS
  27. Color space                              : YUV
  28. Chroma subsampling                       : 4:2:0
  29. Bit depth                                : 10 bits
  30. Bits/(Pixel*Frame)                       : 0.291
  31. Stream size                              : 7.17 GiB (67%)
  32. Title                                    : HEVC, x265Main10@L5.1@High, 24/1.001 fps @ 10712 kbps
  33. Writing library                          : x265 3.5+36-1f2c8da77:[Windows][GCC 11.2.0][64 bit] 10bit
  34. Encoding settings                        : cpuid=533541111039 / frame-threads=4 / numa-pools=16 / wpp / no-pmode / no-pme / no-psnr / no-ssim / log-level=2 / input-csp=1 / input-res=1920x800 / interlace=0 / total-frames=137780 / level-idc=51 / high-tier=1 / uhd-bd=0 / ref=5 / no-allow-non-conformance / no-repeat-headers / annexb / no-aud / no-eob / no-eos / no-hrd / info / hash=0 / no-temporal-layers / open-gop / min-keyint=24 / keyint=240 / gop-lookahead=0 / bframes=6 / b-adapt=2 / b-pyramid / bframe-bias=0 / rc-lookahead=40 / lookahead-slices=0 / NTMzNTQ=uuDQuD2mJt9fsCf / scenecut=40 / no-hist-scenecut / radl=0 / no-splice / no-intra-refresh / ctu=32 / min-cu-size=8 / no-rect / no-amp / max-tu-size=32 / tu-inter-depth=3 / tu-intra-depth=3 / limit-tu=4 / rdoq-level=2 / dynamic-rd=0.00 / no-ssim-rd / signhide / no-tskip / nr-intra=0 / nr-inter=0 / no-constrained-intra / no-strong-intra-smoothing / max-merge=4 / limit-refs=1 / limit-modes / me=3 / subme=4 / merange=25 / temporal-mvp / no-frame-dup / no-hme / weightp / weightb / no-analyze-src-pics / deblock=-3:-3 / no-sao / no-sao-non-deblock / rd=6 / selective-sao=0 / no-early-skip / rskip / no-fast-intra / no-tskip-fast / no-cu-lossless / b-intra / no-splitrd-skip / rdpenalty=0 / psy-rd=2.00 / psy-rdoq=1.00 / no-rd-refine / no-lossless / cbqpoffs=-2 / crqpoffs=-2 / rc=crf / crf=17.0 / qcomp=0.65 / qpstep=4 / stats-write=0 / stats-read=0 / vbv-maxrate=80000 / vbv-bufsize=80000 / vbv-init=0.9 / min-vbv-fullness=50.0 / max-vbv-fullness=80.0 / crf-max=0.0 / crf-min=0.0 / ipratio=1.40 / pbratio=1.30 / aq-mode=2 / aq-strength=0.85 / cutree / zone-count=0 / no-strict-cbr / qg-size=32 / no-rc-grain / qpmax=69 / qpmin=0 / no-const-vbv / sar=1 / overscan=0 / videoformat=5 / range=0 / colorprim=1 / transfer=1 / colormatrix=1 / chromaloc=0 / display-window=0 / cll=0,0 / min-luma=0 / max-luma=1023 / log2-max-poc-lsb=8 / vui-timing-info / vui-hrd-info / slices=1 / no-opt-qp-pps / no-opt-ref-list-length-pps / no-multi-pass-opt-rps / scenecut-bias=0.05 / hist-threshold=0.03 / no-opt-cu-delta-qp / no-aq-motion / no-hdr10 / no-hdr10-opt / no-dhdr10-opt / no-idr-recovery-sei / analysis-reuse-level=0 / analysis-save-reuse-level=0 / analysis-load-reuse-level=0 / scale-factor=0 / refine-intra=0 / refine-inter=0 / refine-mv=1 / refine-ctu-distortion=0 / no-limit-sao / ctu-info=0 / no-lowpass-dct / refine-analysis-type=0 / copy-pic=1 / max-ausize-factor=1.0 / no-dynamic-refine / no-single-sei / no-hevc-aq / no-svt / no-field / qp-adaptation-range=1.00 / scenecut-aware-qp=0conformance-window-offsets / right=0 / bottom=0 / NTMzNTQ= / decoder-max-rate=0 / no-vbv-live-multi-pass
  35. Language                                 : English
  36. Default                                  : Yes
  37. Forced                                   : No
  38. Color range                              : Limited
  39. Color primaries                          : BT.709
  40. Transfer characteristics                 : BT.709
  41. Matrix coefficients                      : BT.709
  42. Audio #1
  43. ID                                       : 2
  44. Format                                   : MLP FBA
  45. Format/Info                              : Meridian Lossless Packing FBA
  46. Commercial name                          : Dolby TrueHD
  47. Codec ID                                 : A_TRUEHD
  48. Duration                                 : 1 h 35 min
  49. Bit rate mode                            : Variable
  50. Bit rate                                 : 3 787 kb/s
  51. Maximum bit rate                         : 5 253 kb/s
  52. Channel(s)                               : 6 channels
  53. Channel layout                           : L R C LFE Ls Rs
  54. Sampling rate                            : 48.0 kHz
  55. Frame rate                               : 1 200.000 FPS (40 SPF)
  56. Compression mode                         : Lossless
  57. Stream size                              : 2.53 GiB (24%)
  58. Title                                    : English Dolby TrueHD 5.1 @ 4427 kbps
  59. Language                                 : English
  60. Default                                  : Yes
  61. Forced                                   : No
  62. Audio #2
  63. ID                                       : 3
  64. Format                                   : AC-3
  65. Format/Info                              : Audio Coding 3
  66. Commercial name                          : Dolby Digital
  67. Codec ID                                 : A_AC3
  68. Duration                                 : 1 h 35 min
  69. Bit rate mode                            : Constant
  70. Bit rate                                 : 640 kb/s
  71. Channel(s)                               : 6 channels
  72. Channel layout                           : L R C LFE Ls Rs
  73. Sampling rate                            : 48.0 kHz
  74. Frame rate                               : 31.250 FPS (1536 SPF)
  75. Compression mode                         : Lossy
  76. Stream size                              : 438 MiB (4%)
  77. Title                                    : English Dolby Digital Audio 5.1 @ 640 kbps
  78. Language                                 : English
  79. Service kind                             : Complete Main
  80. Default                                  : No
  81. Forced                                   : No
  82. Audio #3
  83. ID                                       : 4
  84. Format                                   : AC-3
  85. Format/Info                              : Audio Coding 3
  86. Commercial name                          : Dolby Digital
  87. Codec ID                                 : A_AC3
  88. Duration                                 : 1 h 35 min
  89. Bit rate mode                            : Constant
  90. Bit rate                                 : 224 kb/s
  91. Channel(s)                               : 2 channels
  92. Channel layout                           : L R
  93. Sampling rate                            : 48.0 kHz
  94. Frame rate                               : 31.250 FPS (1536 SPF)
  95. Compression mode                         : Lossy
  96. Stream size                              : 153 MiB (1%)
  97. Title                                    : English Dolby Digital Audio 2.0 @ 224 kbps  Commentary 1
  98. Language                                 : English
  99. Service kind                             : Complete Main
  100. Default                                  : No
  101. Forced                                   : No
  102. Audio #4
  103. ID                                       : 5
  104. Format                                   : AC-3
  105. Format/Info                              : Audio Coding 3
  106. Commercial name                          : Dolby Digital
  107. Codec ID                                 : A_AC3
  108. Duration                                 : 1 h 35 min
  109. Bit rate mode                            : Constant
  110. Bit rate                                 : 224 kb/s
  111. Channel(s)                               : 2 channels
  112. Channel layout                           : L R
  113. Sampling rate                            : 48.0 kHz
  114. Frame rate                               : 31.250 FPS (1536 SPF)
  115. Compression mode                         : Lossy
  116. Stream size                              : 153 MiB (1%)
  117. Title                                    : English Dolby Digital Audio 2.0 @ 224 kbps  Commentary 2
  118. Language                                 : English
  119. Service kind                             : Complete Main
  120. Default                                  : No
  121. Forced                                   : No
  122. Text #1
  123. ID                                       : 6
  124. Format                                   : PGS
  125. Codec ID                                 : S_HDMV/PGS
  126. Codec ID/Info                            : Picture based subtitle format used on BDs/HD-DVDs
  127. Duration                                 : 1 h 28 min
  128. Bit rate                                 : 24.5 kb/s
  129. Count of elements                        : 1512
  130. Stream size                              : 15.6 MiB (0%)
  131. Title                                    : Eng/SUP
  132. Language                                 : English
  133. Default                                  : No
  134. Forced                                   : No
  135. Text #2
  136. ID                                       : 7
  137. Format                                   : PGS
  138. Codec ID                                 : S_HDMV/PGS
  139. Codec ID/Info                            : Picture based subtitle format used on BDs/HD-DVDs
  140. Duration                                 : 1 h 29 min
  141. Bit rate                                 : 29.0 kb/s
  142. Count of elements                        : 1667
  143. Stream size                              : 18.6 MiB (0%)
  144. Title                                    : Eng/SUP  SDH
  145. Language                                 : English
  146. Default                                  : No
  147. Forced                                   : No
  148. Text #3
  149. ID                                       : 8
  150. Format                                   : PGS
  151. Codec ID                                 : S_HDMV/PGS
  152. Codec ID/Info                            : Picture based subtitle format used on BDs/HD-DVDs
  153. Duration                                 : 1 h 35 min
  154. Bit rate                                 : 81.6 kb/s
  155. Count of elements                        : 3562
  156. Stream size                              : 55.8 MiB (1%)
  157. Title                                    : Eng/SUP  Commentary 1
  158. Language                                 : English
  159. Default                                  : No
  160. Forced                                   : No
  161. Text #4
  162. ID                                       : 9
  163. Format                                   : PGS
  164. Codec ID                                 : S_HDMV/PGS
  165. Codec ID/Info                            : Picture based subtitle format used on BDs/HD-DVDs
  166. Duration                                 : 1 h 34 min
  167. Bit rate                                 : 76.7 kb/s
  168. Count of elements                        : 3304
  169. Stream size                              : 52.1 MiB (0%)
  170. Title                                    : Eng/SUP  Commentary 2
  171. Language                                 : English
  172. Default                                  : No
  173. Forced                                   : No
  174. Text #5
  175. ID                                       : 10
  176. Format                                   : PGS
  177. Codec ID                                 : S_HDMV/PGS
  178. Codec ID/Info                            : Picture based subtitle format used on BDs/HD-DVDs
  179. Duration                                 : 1 h 29 min
  180. Bit rate                                 : 13.3 kb/s
  181. Count of elements                        : 1246
  182. Stream size                              : 8.50 MiB (0%)
  183. Title                                    : Chs/SUP  简体
  184. Language                                 : Chinese
  185. Default                                  : Yes
  186. Forced                                   : No
  187. Text #6
  188. ID                                       : 11
  189. Format                                   : PGS
  190. Codec ID                                 : S_HDMV/PGS
  191. Codec ID/Info                            : Picture based subtitle format used on BDs/HD-DVDs
  192. Duration                                 : 1 h 29 min
  193. Bit rate                                 : 13.7 kb/s
  194. Count of elements                        : 1246
  195. Stream size                              : 8.76 MiB (0%)
  196. Title                                    : Cht/SUP  繁体
  197. Language                                 : Chinese
  198. Default                                  : No
  199. Forced                                   : No
  200. Menu
  201. 00:00:00.000                             : en:第 01 章
  202. 00:07:04.215                             : en:第 02 章
  203. 00:12:20.949                             : en:第 03 章
  204. 00:15:25.508                             : en:第 04 章
  205. 00:18:15.511                             : en:第 05 章
  206. 00:24:27.007                             : en:第 06 章
  207. 00:29:18.006                             : en:第 07 章
  208. 00:32:59.186                             : en:第 08 章
  209. 00:36:23.181                             : en:第 09 章
  210. 00:46:01.759                             : en:第 10 章
  211. 00:48:26.904                             : en:第 11 章
  212. 00:52:04.121                             : en:第 12 章
  213. 01:01:23.680                             : en:第 13 章
  214. 01:05:57.912                             : en:第 14 章
  215. 01:11:06.971                             : en:第 15 章
  216. 01:15:46.792                             : en:第 16 章
  217. 01:22:19.101                             : en:第 17 章
  218. 01:26:22.761                             : en:第 18 章
  219. 01:30:39.434                             : en:第 19 章
复制代码




TAGS 动作 冒险 科幻 /

磁力链:
  • magnet:?xt=urn:btih:62E83BAE9A5D35DBA192FFA06486AAA8CE730955
上传的附件:
BT9527电影天堂 1、BT9527电影天堂提供的BT文件均来源于互联网抓取,只供网友学习交流、技术提升使用。
2、我们遵守BitTorrent点对点协议原则,任何版权问题请联系原资源发布商,我们不处理任何版权纠纷,谢谢!如有争议请联系邮箱:BT9527#hotmail.com(#换成@)
3、如果您发现某页面或地址有错误,请联系站长邮箱BT9527#hotmail.com(#换成@),我们会尽快处理。您的热心是对BT9527电影天堂最大的支持。
4、本站建议去正规影院观看电影以支持电影行业发展。
最新回复 (0)

你可以在 登录 or 注册 后,对此帖发表评论!

返回
发新帖