美国升华[中文字幕].American.Insurrection.2021.1080p.BluRay.DTS.x265-10bit-ENTHD 6.80GB

版主小s 22天前 126



◎译  名 美国升华 / The Volunteers
◎片  名 American Insurrection
◎年  代 2021
◎产  地 美国
◎类  别 剧情 / 动作 / 惊悚
◎语  言 英语
◎上映日期 2021-10-08(美國)
◎IMDb链接 https://www.imdb.com/title/tt11737466/
◎豆瓣链接 https://movie.douban.com/subject/35566292/
◎导  演 威廉·苏利文 William Sullivan (id:1391686)
◎编  剧 威廉·苏利文 William Sullivan (id:1391686)
◎演  员 纳丁·马卢夫 Nadine Malouf (id:1432435)
       尼克·韦斯特雷特 Nick Westrate (id:1400259)
       布兰登·佩利亚 Brandon Perea (id:1366445)
       莎拉·沃尔顿 Sarah Wharton (id:1391683)
       迈克尔·雷蒙德-詹姆斯 Michael Raymond-James (id:1201404)

◎简  介
  背景设定在一个反乌托邦的美国,所有非异性恋、白人、基督徒和顺性别的人都被政府用条形码跟踪。

  1. ##### MediaInfo ######
  2. General
  3. Unique ID                                : 123091062465881151686459890694059383167 (0x5C9A79EF621A90724F4B85A92642D97F)
  4. Complete name                            : American.Insurrection.2021.1080p.BluRay.DTS.x265-10bit-ENTHD.mkv
  5. Format                                   : Matroska
  6. Format version                           : Version 4
  7. File size                                : 6.79 GiB
  8. Duration                                 : 1 h 55 min
  9. Overall bit rate                         : 8 457 kb/s
  10. Movie name                               : American Insurrection 2021 1080p BluRay DTS x265-10bit-HDS
  11. Encoded date                             : UTC 2022-06-05 14:13:52
  12. Writing application                      : mkvmerge v67.0.0 ('Under Stars') 64-bit
  13. Writing library                          : libebml v1.4.2 + libmatroska v1.6.4
  14. Video
  15. ID                                       : 1
  16. Format                                   : HEVC
  17. Format/Info                              : High Efficiency Video Coding
  18. Format profile                           : Main 10@L5.1@High
  19. Codec ID                                 : V_MPEGH/ISO/HEVC
  20. Duration                                 : 1 h 55 min
  21. Bit rate                                 : 7 686 kb/s
  22. Width                                    : 1 920 pixels
  23. Height                                   : 960 pixels
  24. Display aspect ratio                     : 2.000
  25. Frame rate mode                          : Constant
  26. Frame rate                               : 23.976 (24000/1001/53354) FPS
  27. Color space                              : YUV
  28. Chroma subsampling                       : 4:2:0
  29. Bit depth                                : 10 bits
  30. Bits/(Pixel*Frame)                       : 0.174
  31. Stream size                              : 6.18 GiB (91%)
  32. Title                                    : meyu@HDSky
  33. Writing library                          : x265 - H.265/HEVC codec
  34. Default                                  : Yes
  35. Forced                                   : No
  36. Audio
  37. ID                                       : 2
  38. Format                                   : DTS
  39. Format/Info                              : Digital Theater Systems
  40. Codec ID                                 : A_DTS
  41. Duration                                 : 1 h 55 min
  42. Bit rate mode                            : Constant
  43. Bit rate                                 : 768 kb/s
  44. Channel(s)                               : 6 channels
  45. Channel layout                           : C L R Ls Rs LFE
  46. Sampling rate                            : 48.0 kHz
  47. Frame rate                               : 93.750 FPS (512 SPF)
  48. Bit depth                                : 24 bits
  49. Compression mode                         : Lossy
  50. Stream size                              : 632 MiB (9%)
  51. Title                                    : English
  52. Language                                 : English
  53. Default                                  : Yes
  54. Forced                                   : No
  55. Text #1
  56. ID                                       : 3
  57. Format                                   : UTF-8
  58. Codec ID                                 : S_TEXT/UTF8
  59. Codec ID/Info                            : UTF-8 Plain Text
  60. Duration                                 : 1 h 54 min
  61. Bit rate                                 : 59 b/s
  62. Count of elements                        : 1675
  63. Stream size                              : 49.6 KiB (0%)
  64. Title                                    : CHS
  65. Language                                 : Chinese
  66. Default                                  : Yes
  67. Forced                                   : No
  68. Text #2
  69. ID                                       : 4
  70. Format                                   : UTF-8
  71. Codec ID                                 : S_TEXT/UTF8
  72. Codec ID/Info                            : UTF-8 Plain Text
  73. Duration                                 : 1 h 54 min
  74. Bit rate                                 : 59 b/s
  75. Count of elements                        : 1675
  76. Stream size                              : 49.6 KiB (0%)
  77. Title                                    : CHT
  78. Language                                 : Chinese
  79. Default                                  : Yes
  80. Forced                                   : No
  81. Menu
  82. 00:00:00.000                             : en:第 01 章
  83. 00:05:08.850                             : en:第 02 章
  84. 00:20:29.395                             : en:第 03 章
  85. 00:33:42.812                             : en:第 04 章
  86. 00:49:26.505                             : en:第 05 章
  87. 00:59:25.854                             : en:第 06 章
  88. 01:07:01.976                             : en:第 07 章
  89. 01:17:30.563                             : en:第 08 章
  90. 01:27:28.410                             : en:第 09 章
  91. 01:35:35.271                             : en:第 10 章
  92. 01:44:24.175                             : en:第 11 章
  93. 01:53:12.786                             : en:第 12 章
复制代码




TAGS 动作 剧情 惊悚 /

磁力链:
  • magnet:?xt=urn:btih:011BAD50690750E9CC12BA0BF52357732FEF81A0
上传的附件:
BT9527电影天堂 1、BT9527电影天堂提供的BT文件均来源于互联网抓取,只供网友学习交流、技术提升使用。
2、我们遵守BitTorrent点对点协议原则,任何版权问题请联系原资源发布商,我们不处理任何版权纠纷,谢谢!如有争议请联系邮箱:BT9527#hotmail.com(#换成@)
3、如果您发现某页面或地址有错误,请联系站长邮箱BT9527#hotmail.com(#换成@),我们会尽快处理。您的热心是对BT9527电影天堂最大的支持。
4、本站建议去正规影院观看电影以支持电影行业发展。
最新回复 (0)

你可以在 登录 or 注册 后,对此帖发表评论!

返回
发新帖