售梦人[中文字幕].The.Dreamseller.2016.PORTUGUESE.1080p.HMAX.WEBRip.DDP5.1.x264-SiGLA 5.97GB

版主小s 22天前 165

◎译 名 售梦人 / the Dreamseller

◎片 名 O Vendedor de Sonhos

◎年 代 2016

◎产 地 巴西

◎类 别 剧情

◎语 言 Portuguese

◎上映日期 2016-12-08(Brazil)

◎IMDb链接 https://www.imdb.com/title/tt5496926/

◎豆瓣评分 7.6/10 (343人评价)

◎豆瓣链接 https://movie.douban.com/subject/27197549/

◎演 员 凯撒·特龙科索 César Troncoso (id:1304627)

丹·斯蒂拉奇 Dan Stulbach (id:1028770)

◎简 介

Júlio César stands on the ledge of a 20-story building poised to jump when he's suddenly joined by a mysterious, disheveled stranger, a "dreamseller," whose mission is to convince people to love life. A philosophical dialogue follows as the stranger talks Julio down from the ledge and invites him to become a dreamseller. At first Júlio views the journey as a "sociological exper...

  1. Video

  2. ID : 1

  3. Format : AVC

  4. Format/Info : Advanced Video Codec

  5. Format profile : High@L4

  6. Format settings : CABAC / 4 Ref Frames

  7. Format settings, CABAC : Yes

  8. Format settings, Reference frames : 4 frames

  9. Codec ID : V_MPEG4/ISO/AVC

  10. Duration : 1 h 36 min

  11. Bit rate mode : Variable

  12. Bit rate : 8 250 kb/s

  13. Maximum bit rate : 12.4 Mb/s

  14. Width : 1 920 pixels

  15. Height : 816 pixels

  16. Display aspect ratio : 2.35:1

  17. Frame rate mode : Constant

  18. Frame rate : 23.976 (24000/1001/53354) FPS

  19. Color space : YUV

  20. Chroma subsampling : 4:2:0

  21. Bit depth : 8 bits

  22. Scan type : Progressive

  23. Bits/(Pixel*Frame) : 0.220

  24. Stream size : 5.54 GiB (93%)

  25. Writing library : x264 core 157 r2965 861cec4

  26. Encoding settings : cabac=1 / ref=4 / deblock=1:0:0 / analyse=0x3:0x113 / me=hex / subme=7 / psy=1 / psy_rd=1.00:0.00 / mixed_ref=1 / me_range=16 / chroma_me=1 / trellis=1 / 8x8dct=1 / cqm=0 / deadzone=21,11 / fast_pskip=1 / chroma_qp_offset=-2 / threads=25 / lookahead_threads=4 / sliced_threads=0 / nr=0 / decimate=1 / interlaced=0 / NTMzNTQ= / bluray_compat=0 / constrained_intra=0 / bframes=3 / b_pyramid=2 / b_adapt=1 / b_bias=0 / direct=1 / weightb=1 / open_gop=0 / weightp=2 / keyint=96 / keyint_min=96 / NTMzNTQ=uuDQuD2mJt9fsCf / scenecut=40 / intra_refresh=0 / rc_lookahead=40 / rc=2pass / mbtree=1 / bitrate=8250 / ratetol=1.0 / qcomp=0.60 / qpmin=0 / qpmax=69 / qpstep=4 / cplxblur=20.0 / qblur=0.5 / vbv_maxrate=12375 / vbv_bufsize=6187 / nal_hrd=vbr / filler=0 / NTMzNTQ=LmsMAP37EqsCpk / ip_ratio=1.40 / aq=1:1.00

  27. Default : Yes

  28. Forced : No

  29. Color range : Limited

  30. Color primaries : BT.709

  31. Transfer characteristics : BT.709

  32. Matrix coefficients : BT.709


  33. Audio

  34. ID : 2

  35. Format : E-AC-3

  36. Format/Info : Enhanced AC-3

  37. Commercial name : Dolby Digital Plus

  38. Codec ID : A_EAC3

  39. Duration : 1 h 36 min

  40. Bit rate mode : Constant

  41. Bit rate : 640 kb/s

  42. Channel(s) : 6 channels

  43. Channel layout : L R C LFE Ls Rs

  44. Sampling rate : 48.0 kHz

  45. Frame rate : 31.250 FPS (1536 SPF)

  46. Compression mode : Lossy

  47. Delay relative to video : 958 ms

  48. Stream size : 442 MiB (7%)

  49. Title : Brazilian

  50. Language : Portuguese

  51. Service kind : Complete Main

  52. Default : Yes

  53. Forced : No


  54. Text #1

  55. ID : 3

  56. Format : UTF-8

  57. Codec ID : S_TEXT/UTF8

  58. Codec ID/Info : UTF-8 Plain Text

  59. Duration : 1 h 26 min

  60. Bit rate : 37 b/s

  61. Count of elements : 893

  62. Stream size : 23.6 KiB (0%)

  63. Language : English

  64. Default : Yes

  65. Forced : No


  66. Text #2

  67. ID : 4

  68. Format : UTF-8

  69. Codec ID : S_TEXT/UTF8

  70. Codec ID/Info : UTF-8 Plain Text

  71. Duration : 1 h 26 min

  72. Bit rate : 39 b/s

  73. Count of elements : 899

  74. Stream size : 24.6 KiB (0%)

  75. Title : Brazilian

  76. Language : Portuguese

  77. Default : No

  78. Forced : No


  79. Text #3

  80. ID : 5

  81. Format : UTF-8

  82. Codec ID : S_TEXT/UTF8

  83. Codec ID/Info : UTF-8 Plain Text

  84. Duration : 1 h 29 min

  85. Bit rate : 46 b/s

  86. Count of elements : 1183

  87. Stream size : 30.7 KiB (0%)

  88. Title : Brazilian (SDH)

  89. Language : Portuguese

  90. Default : No

  91. Forced : No


  92. Text #4

  93. ID : 6

  94. Format : UTF-8

  95. Codec ID : S_TEXT/UTF8

  96. Codec ID/Info : UTF-8 Plain Text

  97. Duration : 1 h 32 min

  98. Bit rate : 56 b/s

  99. Count of elements : 898

  100. Stream size : 38.4 KiB (0%)

  101. Language : Arabic

  102. Default : No

  103. Forced : No


  104. Text #5

  105. ID : 7

  106. Format : UTF-8

  107. Codec ID : S_TEXT/UTF8

  108. Codec ID/Info : UTF-8 Plain Text

  109. Duration : 1 h 32 min

  110. Bit rate : 33 b/s

  111. Count of elements : 864

  112. Stream size : 22.7 KiB (0%)

  113. Language : Czech

  114. Default : No

  115. Forced : No


  116. Text #6

  117. ID : 8

  118. Format : UTF-8

  119. Codec ID : S_TEXT/UTF8

  120. Codec ID/Info : UTF-8 Plain Text

  121. Duration : 1 h 32 min

  122. Bit rate : 33 b/s

  123. Count of elements : 849

  124. Stream size : 22.6 KiB (0%)

  125. Language : Danish

  126. Default : No

  127. Forced : No


  128. Text #7

  129. ID : 9

  130. Format : UTF-8

  131. Codec ID : S_TEXT/UTF8

  132. Codec ID/Info : UTF-8 Plain Text

  133. Duration : 1 h 32 min

  134. Bit rate : 38 b/s

  135. Count of elements : 858

  136. Stream size : 26.1 KiB (0%)

  137. Language : German

  138. Default : No

  139. Forced : No


  140. Text #8

  141. ID : 10

  142. Format : UTF-8

  143. Codec ID : S_TEXT/UTF8

  144. Codec ID/Info : UTF-8 Plain Text

  145. Duration : 1 h 32 min

  146. Bit rate : 61 b/s

  147. Count of elements : 894

  148. Stream size : 41.8 KiB (0%)

  149. Language : Greek

  150. Default : No

  151. Forced : No


  152. Text #9

  153. ID : 11

  154. Format : UTF-8

  155. Codec ID : S_TEXT/UTF8

  156. Codec ID/Info : UTF-8 Plain Text

  157. Duration : 1 h 32 min

  158. Bit rate : 34 b/s

  159. Count of elements : 872

  160. Stream size : 23.6 KiB (0%)

  161. Title : Latin American

  162. Language : Spanish

  163. Default : No

  164. Forced : No


  165. Text #10

  166. ID : 12

  167. Format : UTF-8

  168. Codec ID : S_TEXT/UTF8

  169. Codec ID/Info : UTF-8 Plain Text

  170. Duration : 1 h 32 min

  171. Bit rate : 33 b/s

  172. Count of elements : 891

  173. Stream size : 22.9 KiB (0%)

  174. Language : Spanish

  175. Default : No

  176. Forced : No


  177. Text #11

  178. ID : 13

  179. Format : UTF-8

  180. Codec ID : S_TEXT/UTF8

  181. Codec ID/Info : UTF-8 Plain Text

  182. Duration : 1 h 32 min

  183. Bit rate : 32 b/s

  184. Count of elements : 697

  185. Stream size : 21.9 KiB (0%)

  186. Language : Finnish

  187. Default : No

  188. Forced : No


  189. Text #12

  190. ID : 14

  191. Format : UTF-8

  192. Codec ID : S_TEXT/UTF8

  193. Codec ID/Info : UTF-8 Plain Text

  194. Duration : 1 h 32 min

  195. Bit rate : 37 b/s

  196. Count of elements : 899

  197. Stream size : 25.2 KiB (0%)

  198. Language : French

  199. Default : No

  200. Forced : No


  201. Text #13

  202. ID : 15

  203. Format : UTF-8

  204. Codec ID : S_TEXT/UTF8

  205. Codec ID/Info : UTF-8 Plain Text

  206. Duration : 1 h 32 min

  207. Bit rate : 54 b/s

  208. Count of elements : 909

  209. Stream size : 37.2 KiB (0%)

  210. Language : Hebrew

  211. Default : No

  212. Forced : No


  213. Text #14

  214. ID : 16

  215. Format : UTF-8

  216. Codec ID : S_TEXT/UTF8

  217. Codec ID/Info : UTF-8 Plain Text

  218. Duration : 1 h 32 min

  219. Bit rate : 91 b/s

  220. Count of elements : 904

  221. Stream size : 61.9 KiB (0%)

  222. Language : Hindi

  223. Default : No

  224. Forced : No


  225. Text #15

  226. ID : 17

  227. Format : UTF-8

  228. Codec ID : S_TEXT/UTF8

  229. Codec ID/Info : UTF-8 Plain Text

  230. Duration : 1 h 32 min

  231. Bit rate : 32 b/s

  232. Count of elements : 898

  233. Stream size : 22.1 KiB (0%)

  234. Language : Croatian

  235. Default : No

  236. Forced : No


  237. Text #16

  238. ID : 18

  239. Format : UTF-8

  240. Codec ID : S_TEXT/UTF8

  241. Codec ID/Info : UTF-8 Plain Text

  242. Duration : 1 h 32 min

  243. Bit rate : 34 b/s

  244. Count of elements : 879

  245. Stream size : 23.6 KiB (0%)

  246. Language : Hungarian

  247. Default : No

  248. Forced : No


  249. Text #17

  250. ID : 19

  251. Format : UTF-8

  252. Codec ID : S_TEXT/UTF8

  253. Codec ID/Info : UTF-8 Plain Text

  254. Duration : 1 h 32 min

  255. Bit rate : 33 b/s

  256. Count of elements : 897

  257. Stream size : 22.8 KiB (0%)

  258. Language : Indonesian

  259. Default : No

  260. Forced : No


  261. Text #18

  262. ID : 20

  263. Format : UTF-8

  264. Codec ID : S_TEXT/UTF8

  265. Codec ID/Info : UTF-8 Plain Text

  266. Duration : 1 h 32 min

  267. Bit rate : 35 b/s

  268. Count of elements : 866

  269. Stream size : 24.3 KiB (0%)

  270. Language : Italian

  271. Default : No

  272. Forced : No


  273. Text #19

  274. ID : 21

  275. Format : UTF-8

  276. Codec ID : S_TEXT/UTF8

  277. Codec ID/Info : UTF-8 Plain Text

  278. Duration : 1 h 32 min

  279. Bit rate : 32 b/s

  280. Count of elements : 879

  281. Stream size : 21.9 KiB (0%)

  282. Language : Japanese

  283. Default : No

  284. Forced : No


  285. Text #20

  286. ID : 22

  287. Format : UTF-8

  288. Codec ID : S_TEXT/UTF8

  289. Codec ID/Info : UTF-8 Plain Text

  290. Duration : 1 h 32 min

  291. Bit rate : 41 b/s

  292. Count of elements : 902

  293. Stream size : 27.8 KiB (0%)

  294. Language : Korean

  295. Default : No

  296. Forced : No


  297. Text #21

  298. ID : 23

  299. Format : UTF-8

  300. Codec ID : S_TEXT/UTF8

  301. Codec ID/Info : UTF-8 Plain Text

  302. Duration : 1 h 32 min

  303. Bit rate : 36 b/s

  304. Count of elements : 872

  305. Stream size : 24.6 KiB (0%)

  306. Language : Malay

  307. Default : No

  308. Forced : No


  309. Text #22

  310. ID : 24

  311. Format : UTF-8

  312. Codec ID : S_TEXT/UTF8

  313. Codec ID/Info : UTF-8 Plain Text

  314. Duration : 1 h 32 min

  315. Bit rate : 34 b/s

  316. Count of elements : 817

  317. Stream size : 23.4 KiB (0%)

  318. Language : Norwegian Bokmal

  319. Default : No

  320. Forced : No


  321. Text #23

  322. ID : 25

  323. Format : UTF-8

  324. Codec ID : S_TEXT/UTF8

  325. Codec ID/Info : UTF-8 Plain Text

  326. Duration : 1 h 32 min

  327. Bit rate : 34 b/s

  328. Count of elements : 857

  329. Stream size : 23.1 KiB (0%)

  330. Language : Dutch

  331. Default : No

  332. Forced : No


  333. Text #24

  334. ID : 26

  335. Format : UTF-8

  336. Codec ID : S_TEXT/UTF8

  337. Codec ID/Info : UTF-8 Plain Text

  338. Duration : 1 h 32 min

  339. Bit rate : 33 b/s

  340. Count of elements : 877

  341. Stream size : 22.9 KiB (0%)

  342. Language : Polish

  343. Default : No

  344. Forced : No


  345. Text #25

  346. ID : 27

  347. Format : UTF-8

  348. Codec ID : S_TEXT/UTF8

  349. Codec ID/Info : UTF-8 Plain Text

  350. Duration : 1 h 32 min

  351. Bit rate : 34 b/s

  352. Count of elements : 874

  353. Stream size : 23.3 KiB (0%)

  354. Language : Portuguese

  355. Default : No

  356. Forced : No


  357. Text #26

  358. ID : 28

  359. Format : UTF-8

  360. Codec ID : S_TEXT/UTF8

  361. Codec ID/Info : UTF-8 Plain Text

  362. Duration : 1 h 32 min

  363. Bit rate : 34 b/s

  364. Count of elements : 882

  365. Stream size : 23.2 KiB (0%)

  366. Language : Romanian

  367. Default : No

  368. Forced : No


  369. Text #27

  370. ID : 29

  371. Format : UTF-8

  372. Codec ID : S_TEXT/UTF8

  373. Codec ID/Info : UTF-8 Plain Text

  374. Duration : 1 h 32 min

  375. Bit rate : 57 b/s

  376. Count of elements : 887

  377. Stream size : 38.7 KiB (0%)

  378. Language : Russian

  379. Default : No

  380. Forced : No


  381. Text #28

  382. ID : 30

  383. Format : UTF-8

  384. Codec ID : S_TEXT/UTF8

  385. Codec ID/Info : UTF-8 Plain Text

  386. Duration : 1 h 26 min

  387. Bit rate : 37 b/s

  388. Count of elements : 885

  389. Stream size : 23.4 KiB (0%)

  390. Language : Swedish

  391. Default : No

  392. Forced : No


  393. Text #29

  394. ID : 31

  395. Format : UTF-8

  396. Codec ID : S_TEXT/UTF8

  397. Codec ID/Info : UTF-8 Plain Text

  398. Duration : 1 h 26 min

  399. Bit rate : 91 b/s

  400. Count of elements : 903

  401. Stream size : 57.9 KiB (0%)

  402. Language : Thai

  403. Default : No

  404. Forced : No


  405. Text #30

  406. ID : 32

  407. Format : UTF-8

  408. Codec ID : S_TEXT/UTF8

  409. Codec ID/Info : UTF-8 Plain Text

  410. Duration : 1 h 32 min

  411. Bit rate : 35 b/s

  412. Count of elements : 885

  413. Stream size : 23.7 KiB (0%)

  414. Language : Turkish

  415. Default : No

  416. Forced : No


  417. Text #31

  418. ID : 33

  419. Format : UTF-8

  420. Codec ID : S_TEXT/UTF8

  421. Codec ID/Info : UTF-8 Plain Text

  422. Duration : 1 h 26 min

  423. Bit rate : 57 b/s

  424. Count of elements : 903

  425. Stream size : 36.5 KiB (0%)

  426. Language : Ukrainian

  427. Default : No

  428. Forced : No


  429. Text #32

  430. ID : 34

  431. Format : UTF-8

  432. Codec ID : S_TEXT/UTF8

  433. Codec ID/Info : UTF-8 Plain Text

  434. Duration : 1 h 28 min

  435. Bit rate : 50 b/s

  436. Count of elements : 832

  437. Stream size : 32.6 KiB (0%)

  438. Language : Vietnamese

  439. Default : No

  440. Forced : No


  441. Text #33

  442. ID : 35

  443. Format : UTF-8

  444. Codec ID : S_TEXT/UTF8

  445. Codec ID/Info : UTF-8 Plain Text

  446. Duration : 1 h 32 min

  447. Bit rate : 33 b/s

  448. Count of elements : 891

  449. Stream size : 22.6 KiB (0%)

  450. Title : Simplified

  451. Language : Chinese

  452. Default : No

  453. Forced : No


  454. Text #34

  455. ID : 36

  456. Format : UTF-8

  457. Codec ID : S_TEXT/UTF8

  458. Codec ID/Info : UTF-8 Plain Text

  459. Duration : 1 h 26 min

  460. Bit rate : 33 b/s

  461. Count of elements : 892

  462. Stream size : 20.9 KiB (0%)

  463. Title : Traditional

  464. Language : Chinese

  465. Default : No

  466. Forced : No

复制代码

  


TAGS 剧情

磁力链:
  • magnet:?xt=urn:btih:387A7A50FD6A788FCF9A003BA999984304D4CBCE
上传的附件:
BT9527电影天堂 1、BT9527电影天堂提供的BT文件均来源于互联网抓取,只供网友学习交流、技术提升使用。
2、我们遵守BitTorrent点对点协议原则,任何版权问题请联系原资源发布商,我们不处理任何版权纠纷,谢谢!如有争议请联系邮箱:BT9527#hotmail.com(#换成@)
3、如果您发现某页面或地址有错误,请联系站长邮箱BT9527#hotmail.com(#换成@),我们会尽快处理。您的热心是对BT9527电影天堂最大的支持。
4、本站建议去正规影院观看电影以支持电影行业发展。
最新回复 (0)

你可以在 登录 or 注册 后,对此帖发表评论!

返回