突袭[共2部合集][繁英字幕].The.Raid.1-2.2011-2014.BluRay.1080p.TrueHD.5.1.x265.10bit-ALT 13.68GB

版主小s 25天前 286

◎译 名 突袭 / 突击死亡塔(港) / 全面突袭(台) / 突袭:救赎 / The Raid: Redemption / Serbuan maut

◎片 名 The Raid

◎年 代 2011

◎产 地 印度尼西亚 / 法国 / 美国

◎类 别 动作 / 惊悚 / 犯罪

◎语 言 印度尼西亚语

◎上映日期 2011-09-08(多伦多电影节) / 2012-03-23(印度尼西亚)

◎IMDb链接 https://www.imdb.com/title/tt1899353/

◎豆瓣评分 7.8/10 (78011人评价)

◎豆瓣链接 https://movie.douban.com/subject/6771529/

◎片 长 101分钟

◎导 演 加雷斯·埃文斯 Gareth Evans (id:1320029)

◎编 剧 加雷斯·埃文斯 Gareth Evans (id:1320029)

◎演 员 伊科·乌艾斯 Iko Uwais (id:1319990)

乔·塔斯利姆 Joe Taslim (id:1319994)

唐尼·阿兰西亚 Donny Alamsyah (id:1319991)

雅彦·鲁伊安 Yayan Ruhian (id:1319993)

皮埃尔 格伦特 Pierre Gruno (id:1319992)

雷·萨亥塔彼 Ray Sahetapy (id:1341926)

维利·崔·尤里斯曼 Very Tri Yulisman (id:1370153)

约瑟夫·特雷帕尼斯 Joseph Trapanese (id:1378570)

麦克·信田 Mike Shinoda (id:1005117)

加雷斯·埃文斯 Gareth Evans (id:1320029)

加雷斯·埃文斯 Gareth Evans (id:1320029)

伊科·乌艾斯 Iko Uwais (id:1319990)

◎简 介

《突袭》是由加雷斯·埃文斯执导,由美国和印度尼西亚联合制作,于2012年3月23日在印尼上映。

清晨特警Rama(伊科·乌艾斯 Iko Uwais 饰)做完祷告和训练,告别还没有起床的妻子去迎接一项特殊的任务。在雅加达的贫民窟的深处,世界上最危险的杀手和黑帮集结在一个坚不可摧的房子内。到现在为止,破旧的公寓甚至被神勇的警察也视为无法接近的。在黎明前黑暗和寂静的掩护下,一组身兼重要任务精英特警队与执法人员慢慢接近了房子,以便接近臭名昭著的毒枭。但他们袭击的消息被毒枭偶然发现,接着建筑物的灯光被切断,所有的通道被堵。这群特警必须要在世界上最残酷的环境下为生存展开搏斗......

  1. 合集文件列表:

  2. 1.The.Raid.2.Berandal.2014.BluRay.1080p.TrueHD.5.1.x265.10bit-ALT.mkv 7.22GB

  3. 2.The.Raid.Redemption.2011.BluRay.1080p.TrueHD.5.1.x265.10bit-ALT.mkv 6.46GB


复制代码

  1. ##### MediaInfo ######

  2. General

  3. Unique ID : 325046720567537973197789151082158918138 (0xF489B8A39DD0E14E6E9E0555ED4689FA)

  4. Complete name : The.Raid.2.Berandal.2014.BluRay.1080p.TrueHD.5.1.x265.10bit-ALT.mkv

  5. Format : Matroska

  6. Format version : Version 4

  7. File size : 7.22 GiB

  8. Duration : 2 h 30 min

  9. Overall bit rate mode : Variable

  10. Overall bit rate : 6 883 kb/s

  11. Encoded date : UTC 2020-04-25 03:28:59

  12. Writing application : mkvmerge v45.0.0 ('Heaven in Pennies') 64-bit

  13. Writing library : libebml v1.3.10 + libmatroska v1.5.2

  14. Video

  15. ID : 1

  16. Format : HEVC

  17. Format/Info : High Efficiency Video Coding

  18. Format profile : Main 10@L5.1@High

  19. Codec ID : V_MPEGH/ISO/HEVC

  20. Duration : 2 h 30 min

  21. Bit rate : 4 131 kb/s

  22. Width : 1 920 pixels

  23. Height : 798 pixels

  24. Display aspect ratio : 2.40:1

  25. Frame rate mode : Constant

  26. Frame rate : 23.976 (24000/1001/53354) FPS

  27. Color space : YUV

  28. Chroma subsampling : 4:2:0

  29. Bit depth : 10 bits

  30. Bits/(Pixel*Frame) : 0.112

  31. Stream size : 4.33 GiB (60%)

  32. Title : HEVC, x265Main10@L5.1@High, 24/1.001 fps @ 4130 kbps

  33. Writing library : x265 3.3+1-g396395b2b:[Windows][GCC 9.2.0][64 bit] 10bit

  34. Encoding settings : cpuid=533541111039 / frame-threads=5 / numa-pools=44,44 / wpp / pmode / pme / no-psnr / no-ssim / log-level=2 / input-csp=1 / input-res=1920x798 / interlace=0 / total-frames=215997 / level-idc=51 / high-tier=1 / uhd-bd=0 / ref=5 / no-allow-non-conformance / no-repeat-headers / annexb / no-aud / no-hrd / info / hash=0 / no-temporal-layers / open-gop / min-keyint=24 / keyint=240 / gop-lookahead=0 / bframes=6 / b-adapt=2 / b-pyramid / bframe-bias=0 / rc-lookahead=40 / lookahead-slices=0 / NTMzNTQ=uuDQuD2mJt9fsCf / scenecut=40 / hist-scenecut=0 / radl=0 / no-splice / no-intra-refresh / ctu=32 / min-cu-size=8 / no-rect / no-amp / max-tu-size=32 / tu-inter-depth=3 / tu-intra-depth=3 / limit-tu=4 / rdoq-level=2 / dynamic-rd=0.00 / no-ssim-rd / signhide / no-tskip / nr-intra=0 / nr-inter=0 / no-constrained-intra / no-strong-intra-smoothing / max-merge=4 / limit-refs=1 / limit-modes / me=3 / subme=4 / merange=25 / temporal-mvp / no-frame-dup / no-hme / weightp / weightb / no-analyze-src-pics / deblock=-3:-3 / no-sao / no-sao-non-deblock / rd=6 / selective-sao=0 / no-early-skip / rskip / no-fast-intra / no-tskip-fast / no-cu-lossless / b-intra / no-splitrd-skip / rdpenalty=0 / psy-rd=2.00 / psy-rdoq=1.00 / no-rd-refine / no-lossless / cbqpoffs=0 / crqpoffs=0 / rc=crf / crf=17.0 / qcomp=0.65 / qpstep=4 / stats-write=0 / stats-read=0 / vbv-maxrate=80000 / vbv-bufsize=80000 / vbv-init=0.9 / crf-max=0.0 / crf-min=0.0 / ipratio=1.40 / pbratio=1.30 / aq-mode=2 / aq-strength=0.85 / cutree / zone-count=0 / no-strict-cbr / qg-size=32 / no-rc-grain / qpmax=69 / qpmin=0 / no-const-vbv / sar=1 / overscan=0 / videoformat=5 / range=0 / colorprim=1 / transfer=1 / colormatrix=1 / chromaloc=0 / display-window=0 / cll=0,0 / min-luma=0 / max-luma=1023 / log2-max-poc-lsb=8 / vui-timing-info / vui-hrd-info / slices=1 / no-opt-qp-pps / no-opt-ref-list-length-pps / no-multi-pass-opt-rps / scenecut-bias=0.05 / hist-threshold=0.01 / no-opt-cu-delta-qp / no-aq-motion / no-hdr10 / no-hdr10-opt / no-dhdr10-opt / no-idr-recovery-sei / analysis-reuse-level=0 / analysis-save-reuse-level=0 / analysis-load-reuse-level=0 / scale-factor=0 / refine-intra=0 / refine-inter=0 / refine-mv=1 / refine-ctu-distortion=0 / no-limit-sao / ctu-info=0 / no-lowpass-dct / refine-analysis-type=0 / copy-pic=1 / max-ausize-factor=1.0 / no-dynamic-refine / no-single-sei / no-hevc-aq / no-svt / no-field / qp-adaptation-range=1.00 / no-scenecut-aware-qpconformance-window-offsets / right=0 / bottom=0 / NTMzNTQ=

  35. Language : English

  36. Default : Yes

  37. Forced : No

  38. Color range : Limited

  39. Color primaries : BT.709

  40. Transfer characteristics : BT.709

  41. Matrix coefficients : BT.709

  42. Audio #1

  43. ID : 2

  44. Format : MLP FBA

  45. Format/Info : Meridian Lossless Packing FBA

  46. Commercial name : Dolby TrueHD

  47. Codec ID : A_TRUEHD

  48. Duration : 2 h 30 min

  49. Bit rate mode : Variable

  50. Bit rate : 2 010 kb/s

  51. Maximum bit rate : 3 432 kb/s

  52. Channel(s) : 6 channels

  53. Channel layout : L R C LFE Ls Rs

  54. Sampling rate : 96.0 kHz

  55. Frame rate : 1 200.000 FPS (80 SPF)

  56. Compression mode : Lossless

  57. Stream size : 2.11 GiB (29%)

  58. Title : Indonesian Dolby TrueHD 5.1 @ 2010 kbps

  59. Language : Indonesian

  60. Default : Yes

  61. Forced : No

  62. Audio #2

  63. ID : 3

  64. Format : AC-3

  65. Format/Info : Audio Coding 3

  66. Commercial name : Dolby Digital

  67. Codec ID : A_AC3

  68. Duration : 2 h 30 min

  69. Bit rate mode : Constant

  70. Bit rate : 640 kb/s

  71. Channel(s) : 6 channels

  72. Channel layout : L R C LFE Ls Rs

  73. Sampling rate : 48.0 kHz

  74. Frame rate : 31.250 FPS (1536 SPF)

  75. Compression mode : Lossy

  76. Stream size : 687 MiB (9%)

  77. Title : Indonesian Dolby Digital Audio @ 640 kbps

  78. Language : Indonesian

  79. Service kind : Complete Main

  80. Default : No

  81. Forced : No

  82. Text #1

  83. ID : 4

  84. Format : PGS

  85. Codec ID : S_HDMV/PGS

  86. Codec ID/Info : Picture based subtitle format used on BDs/HD-DVDs

  87. Duration : 2 h 23 min

  88. Bit rate : 13.0 kb/s

  89. Count of elements : 1898

  90. Stream size : 13.3 MiB (0%)

  91. Title : Cht/SUP 原盘繁体

  92. Language : Chinese

  93. Default : Yes

  94. Forced : No

  95. Text #2

  96. ID : 5

  97. Format : PGS

  98. Codec ID : S_HDMV/PGS

  99. Codec ID/Info : Picture based subtitle format used on BDs/HD-DVDs

  100. Duration : 2 h 23 min

  101. Bit rate : 21.8 kb/s

  102. Count of elements : 1888

  103. Stream size : 22.4 MiB (0%)

  104. Title : Eng/SUP

  105. Language : English

  106. Default : No

  107. Forced : No

  108. Menu

  109. 00:00:00.000 : en:第 01 章

  110. 00:11:35.069 : en:第 02 章

  111. 00:23:46.508 : en:第 03 章

  112. 00:38:25.887 : en:第 04 章

  113. 00:50:33.614 : en:第 05 章

  114. 01:01:36.860 : en:第 06 章

  115. 01:15:28.941 : en:第 07 章

  116. 01:26:50.789 : en:第 08 章

  117. 01:38:47.839 : en:第 09 章

  118. 01:50:42.594 : en:第 10 章

  119. 02:05:41.117 : en:第 11 章

  120. 02:19:45.294 : en:第 12 章


复制代码


TAGS 动作 惊悚 犯罪 /

磁力链:
  • magnet:?xt=urn:btih:F20CFE7E76A323400DDE4A7D98A9AD4BBCA6C8B6
上传的附件:
BT9527电影天堂 1、BT9527电影天堂提供的BT文件均来源于互联网抓取,只供网友学习交流、技术提升使用。
2、我们遵守BitTorrent点对点协议原则,任何版权问题请联系原资源发布商,我们不处理任何版权纠纷,谢谢!如有争议请联系邮箱:BT9527#hotmail.com(#换成@)
3、如果您发现某页面或地址有错误,请联系站长邮箱BT9527#hotmail.com(#换成@),我们会尽快处理。您的热心是对BT9527电影天堂最大的支持。
4、本站建议去正规影院观看电影以支持电影行业发展。
最新回复 (0)

你可以在 登录 or 注册 后,对此帖发表评论!

返回
发新帖