人类清除计划[共4部合集][简繁英字幕].The.Purge.1-4.2013-2018.BluRay.1080p.DTS-HD.MA5.1.x265.10bit-ALT 38.56GB

版主小s 29天前 213

◎译 名 人类清除计划 / 国定杀戮日(台 / 港) / 灭绝游戏 / 大清洗

◎片 名 The Purge

◎年 代 2013

◎产 地 美国 / 法国

◎类 别 科幻 / 惊悚 / 犯罪

◎语 言 英语

◎上映日期 2013-05-02(斯坦利电影节) / 2013-06-07(美国)

◎IMDb链接 https://www.imdb.com/title/tt2184339/

◎豆瓣评分 6.0/10 (69200人评价)

◎豆瓣链接 https://movie.douban.com/subject/10453723/

◎片 长 85分钟

◎导 演 詹姆斯·德莫纳克 James DeMonaco (id:1282226)

◎编 剧 詹姆斯·德莫纳克 James DeMonaco (id:1282226)

◎演 员 伊桑·霍克 Ethan Hawke (id:1018984)

琳娜·海蒂 Lena Headey (id:1053571)

艾德文·霍德吉 Edwin Hodge (id:1004934)

马克斯·博克霍德 Max Burkholder (id:1180079)

阿黛莱德·凯恩 Adelaide Kane (id:1229524)

瑞斯·维克菲尔德 Rhys Wakefield (id:1040846)

艾丽西娅·维拉-贝利 Alicia Vela-Bailey (id:1310160)

克里斯·马尔基 Chris Mulkey (id:1048223)

托尼·奥勒 Tony Oller (id:1192297)

阿里加·巴利吉斯 Arija Bareikis (id:1009448)

阿隆·库班 Aaron Kuban (id:1325920)

汤姆·易 Tom Yi (id:1327325)

迈克尔·贝 Michael Bay (id:1027776)

杰森·布伦 Jason Blum (id:1278833)

布拉德利·福勒 Bradley Fuller (id:1284314)

雅克·乔夫雷特 Jacques Jouffret (id:1288027)

莉萨·诺西亚 Lisa Norcia (id:1015591)

史蒂文·莫罗 Steven Morrow (id:1369618)

◎简 介

近未来的美国,全国失业率仅为1%,犯罪率则创下史上最低纪录,暴力几乎消失无踪。美利坚合众国仿佛进入宛如天堂的美好黄金时代,而促成这完美表象的则是前所未闻的大扫荡计划。国家为了有效释放公民心底的压抑和不满情绪,特别规定每年有一天的晚上7点之后举行长达十二小时的全国性大扫荡,届时人们将走上街头,展开完全不用承担法律责任的殴斗与杀戮。在这个畸形的时代,安保系统推销员詹姆斯·桑丁(伊森·霍克 Ethan Hawke 配音)大发其财,与妻子儿女过着养尊处优的幸福生活。

又是一年大扫荡之夜到来,桑丁一家端坐固若金汤的豪华府邸,在屏幕前观赏杀戮之夜的表演。谁知这一晚,詹姆斯的儿子查理出手拯救了一名被追杀的流浪汉,桑丁一家不可避免被卷入血腥的漩涡之中……

◎获奖情况 (共1项)

第23届MTV电影奖 (2014)

MTV电影奖 最佳惊恐戏表演(提名)

└──伊桑·霍克 (id:1018984)

  1. 合集文件列表:

  2. 1.The.First.Purge.2018.BluRay.1080p.DTS-X.MA.7.1.x265.10bit-ALT.mkv 10.07GB

  3. 2.The.Purge.2013.BluRay.1080p.DTS-HD.MA5.1.x265.10bit-ALT.mkv 7.42GB

  4. 3.The.Purge.Anarchy.2014.BluRay.1080p.DTS-HD.MA5.1.x265.10bit-ALT.mkv 8.88GB

  5. 4.The.Purge.Election.Year.2016.BluRay.1080p.DTS-HD.MA5.1.x265.10bit-ALT.mkv 12.19GB


复制代码

  1. ##### MediaInfo ######

  2. General

  3. Unique ID : 214283527207135838628138784575186916346 (0xA1358193F1F5FE9CACAE397A9861D3FA)

  4. Complete name : The.First.Purge.2018.BluRay.1080p.DTS-X.MA.7.1.x265.10bit-ALT.mkv

  5. Format : Matroska

  6. Format version : Version 4

  7. File size : 10.1 GiB

  8. Duration : 1 h 37 min

  9. Overall bit rate mode : Variable

  10. Overall bit rate : 14.8 Mb/s

  11. Encoded date : UTC 2020-08-02 03:41:59

  12. Writing application : mkvmerge v48.0.0 ('Fortress Around Your Heart') 64-bit

  13. Writing library : libebml v1.4.0 + libmatroska v1.6.0

  14. Video

  15. ID : 1

  16. Format : HEVC

  17. Format/Info : High Efficiency Video Coding

  18. Format profile : Main 10@L5.1@High

  19. Codec ID : V_MPEGH/ISO/HEVC

  20. Duration : 1 h 37 min

  21. Bit rate : 7 889 kb/s

  22. Width : 1 920 pixels

  23. Height : 804 pixels

  24. Display aspect ratio : 2.40:1

  25. Frame rate mode : Constant

  26. Frame rate : 23.976 (24000/1001/53354) FPS

  27. Color space : YUV

  28. Chroma subsampling : 4:2:0

  29. Bit depth : 10 bits

  30. Bits/(Pixel*Frame) : 0.213

  31. Stream size : 5.37 GiB (53%)

  32. Title : HEVC, x265Main10@L5.1@High, 24/1.001 fps @ 7888 kbps

  33. Writing library : x265 3.3+1-g396395b2b:[Windows][GCC 9.2.0][64 bit] 10bit

  34. Encoding settings : cpuid=533541111039 / frame-threads=5 / numa-pools=44,44 / wpp / pmode / pme / no-psnr / no-ssim / log-level=2 / input-csp=1 / input-res=1920x804 / interlace=0 / total-frames=140150 / level-idc=51 / high-tier=1 / uhd-bd=0 / ref=5 / no-allow-non-conformance / no-repeat-headers / annexb / no-aud / no-hrd / info / hash=0 / no-temporal-layers / open-gop / min-keyint=24 / keyint=240 / gop-lookahead=0 / bframes=6 / b-adapt=2 / b-pyramid / bframe-bias=0 / rc-lookahead=40 / lookahead-slices=0 / NTMzNTQ=uuDQuD2mJt9fsCf / scenecut=40 / hist-scenecut=0 / radl=0 / no-splice / no-intra-refresh / ctu=32 / min-cu-size=8 / no-rect / no-amp / max-tu-size=32 / tu-inter-depth=3 / tu-intra-depth=3 / limit-tu=4 / rdoq-level=2 / dynamic-rd=0.00 / no-ssim-rd / signhide / no-tskip / nr-intra=0 / nr-inter=0 / no-constrained-intra / no-strong-intra-smoothing / max-merge=4 / limit-refs=1 / limit-modes / me=3 / subme=4 / merange=25 / temporal-mvp / no-frame-dup / no-hme / weightp / weightb / no-analyze-src-pics / deblock=-3:-3 / no-sao / no-sao-non-deblock / rd=6 / selective-sao=0 / no-early-skip / rskip / no-fast-intra / no-tskip-fast / no-cu-lossless / b-intra / no-splitrd-skip / rdpenalty=0 / psy-rd=2.00 / psy-rdoq=1.00 / no-rd-refine / no-lossless / cbqpoffs=0 / crqpoffs=0 / rc=crf / crf=17.0 / qcomp=0.65 / qpstep=4 / stats-write=0 / stats-read=0 / vbv-maxrate=80000 / vbv-bufsize=80000 / vbv-init=0.9 / crf-max=0.0 / crf-min=0.0 / ipratio=1.40 / pbratio=1.30 / aq-mode=2 / aq-strength=0.85 / cutree / zone-count=0 / no-strict-cbr / qg-size=32 / no-rc-grain / qpmax=69 / qpmin=0 / no-const-vbv / sar=1 / overscan=0 / videoformat=5 / range=0 / colorprim=1 / transfer=1 / colormatrix=1 / chromaloc=0 / display-window=0 / cll=0,0 / min-luma=0 / max-luma=1023 / log2-max-poc-lsb=8 / vui-timing-info / vui-hrd-info / slices=1 / no-opt-qp-pps / no-opt-ref-list-length-pps / no-multi-pass-opt-rps / scenecut-bias=0.05 / hist-threshold=0.01 / no-opt-cu-delta-qp / no-aq-motion / no-hdr10 / no-hdr10-opt / no-dhdr10-opt / no-idr-recovery-sei / analysis-reuse-level=0 / analysis-save-reuse-level=0 / analysis-load-reuse-level=0 / scale-factor=0 / refine-intra=0 / refine-inter=0 / refine-mv=1 / refine-ctu-distortion=0 / no-limit-sao / ctu-info=0 / no-lowpass-dct / refine-analysis-type=0 / copy-pic=1 / max-ausize-factor=1.0 / no-dynamic-refine / no-single-sei / no-hevc-aq / no-svt / no-field / qp-adaptation-range=1.00 / no-scenecut-aware-qpconformance-window-offsets / right=0 / bottom=0 / NTMzNTQ=

  35. Language : English

  36. Default : Yes

  37. Forced : No

  38. Color range : Limited

  39. Color primaries : BT.709

  40. Transfer characteristics : BT.709

  41. Matrix coefficients : BT.709

  42. Audio

  43. ID : 2

  44. Format : DTS XLL X

  45. Format/Info : Digital Theater Systems

  46. Commercial name : DTS-HD Master Audio

  47. Codec ID : A_DTS

  48. Duration : 1 h 37 min

  49. Bit rate mode : Variable

  50. Bit rate : 6 816 kb/s

  51. Channel(s) : 8 channels

  52. Channel(s)_Original : Object Based

  53. ChannelLayout_Original : Object Based

  54. Sampling rate : 48.0 kHz

  55. Frame rate : 93.750 FPS (512 SPF)

  56. Bit depth : 24 bits

  57. Stream size : 4.64 GiB (46%)

  58. Title : English DTS:X Master Audio 7.1 @ 6816 kbps

  59. Language : English

  60. Default : Yes

  61. Forced : No

  62. Text #1

  63. ID : 3

  64. Format : PGS

  65. Codec ID : S_HDMV/PGS

  66. Codec ID/Info : Picture based subtitle format used on BDs/HD-DVDs

  67. Duration : 1 h 33 min

  68. Bit rate : 47.3 kb/s

  69. Count of elements : 2994

  70. Stream size : 31.5 MiB (0%)

  71. Title : Eng/SUP

  72. Language : English

  73. Default : No

  74. Forced : No

  75. Text #2

  76. ID : 4

  77. Format : PGS

  78. Codec ID : S_HDMV/PGS

  79. Codec ID/Info : Picture based subtitle format used on BDs/HD-DVDs

  80. Duration : 1 h 30 min

  81. Bit rate : 23.5 kb/s

  82. Count of elements : 2778

  83. Stream size : 15.2 MiB (0%)

  84. Title : Chs/SUP 简体

  85. Language : Chinese

  86. Default : Yes

  87. Forced : No

  88. Text #3

  89. ID : 5

  90. Format : PGS

  91. Codec ID : S_HDMV/PGS

  92. Codec ID/Info : Picture based subtitle format used on BDs/HD-DVDs

  93. Duration : 1 h 30 min

  94. Bit rate : 24.6 kb/s

  95. Count of elements : 2778

  96. Stream size : 15.9 MiB (0%)

  97. Title : Cht/SUP 繁体

  98. Language : Chinese

  99. Default : No

  100. Forced : No

  101. Menu

  102. 00:00:00.000 : en:第 01 章

  103. 00:06:25.634 : en:第 02 章

  104. 00:11:59.802 : en:第 03 章

  105. 00:16:18.769 : en:第 04 章

  106. 00:21:18.109 : en:第 05 章

  107. 00:25:56.387 : en:第 06 章

  108. 00:30:54.143 : en:第 07 章

  109. 00:35:31.211 : en:第 08 章

  110. 00:38:41.110 : en:第 09 章

  111. 00:43:02.454 : en:第 10 章

  112. 00:48:34.411 : en:第 11 章

  113. 00:53:35.085 : en:第 12 章

  114. 00:55:59.563 : en:第 13 章

  115. 00:59:13.048 : en:第 14 章

  116. 01:05:25.713 : en:第 15 章

  117. 01:09:31.792 : en:第 16 章

  118. 01:13:23.731 : en:第 17 章

  119. 01:19:47.532 : en:第 18 章

  120. 01:24:50.042 : en:第 19 章

  121. 01:29:54.930 : en:第 20 章


复制代码


TAGS 惊悚 犯罪 科幻 /

磁力链:
  • magnet:?xt=urn:btih:A3A0C3012DF2A752882C579EDAC35BBA04C505DA
上传的附件:
BT9527电影天堂 1、BT9527电影天堂提供的BT文件均来源于互联网抓取,只供网友学习交流、技术提升使用。
2、我们遵守BitTorrent点对点协议原则,任何版权问题请联系原资源发布商,我们不处理任何版权纠纷,谢谢!如有争议请联系邮箱:BT9527#hotmail.com(#换成@)
3、如果您发现某页面或地址有错误,请联系站长邮箱BT9527#hotmail.com(#换成@),我们会尽快处理。您的热心是对BT9527电影天堂最大的支持。
4、本站建议去正规影院观看电影以支持电影行业发展。
最新回复 (0)

你可以在 登录 or 注册 后,对此帖发表评论!

返回
发新帖