指环王[共3部合集][繁英字幕].The.Lord.of.The.Rings.Trilogy.2001-2003.Extended.UHD.BluRay.2160p.TrueHD.Atmos.7.1.x265.10bit.HDR-ALT 71.38GB

版主小s 29天前 121



◎译  名 指环王1:护戒使者 / 指环王1:魔戒再现 / 指环王I:护戒使者 / 魔戒首部曲:魔戒现身 / 魔戒1:护戒联盟
◎片  名 The Lord of the Rings: The Fellowship of the Ring
◎年  代 2001
◎产  地 新西兰 / 美国
◎类  别 剧情 / 动作 / 奇幻 / 冒险
◎语  言 英语 / 辛达林语
◎上映日期 2002-04-04(中国大陆) / 2021-04-16(中国大陆重映) / 2001-12-19(美国)
◎IMDb链接 https://www.imdb.com/title/tt0120737/
◎豆瓣评分 9.1/10 (772197人评价)
◎豆瓣链接 https://movie.douban.com/subject/1291571/
◎片  长 179分钟
◎导  演 彼得·杰克逊 Peter Jackson (id:1040524)
◎编  剧 弗兰·威尔士 Fran Walsh (id:1013998)
       菲利帕·鲍恩斯 Philippa Boyens (id:1279114)
       彼得·杰克逊 Peter Jackson (id:1040524)
       J. R. R. 托尔金 J. R. R. Tolkien (id:1152849)
◎演  员 伊利亚·伍德 Elijah Wood (id:1054395)
       西恩·奥斯汀 Sean Astin (id:1031818)
       伊恩·麦克莱恩 Ian McKellen (id:1054410)
       维果·莫腾森 Viggo Mortensen (id:1054520)
       奥兰多·布鲁姆 Orlando Bloom (id:1008069)
       多米尼克·莫纳汉 Dominic Monaghan (id:1036320)
       比利·博伊德 Billy Boyd (id:1049629)
       克里斯托弗·李 Christopher Lee (id:1054467)
       马尔顿·索克斯 Marton Csokas (id:1009284)
       梅根·爱德华兹 Megan Edwards (id:1192159)
       伊安·霍姆 Ian Holm (id:1049594)
       凯特·布兰切特 Cate Blanchett (id:1054441)
       阿兰·霍华德 Alan Howard (id:1090960)
       马克·弗格森 Mark Ferguson (id:1090417)
       肖恩·宾 Sean Bean (id:1002683)
       萨拉·贝克 Sala Baker (id:1049790)
       劳伦斯·马克奥雷 Lawrence Makoare (id:1125247)
       安迪·瑟金斯 Andy Serkis (id:1002708)
       彼得·麦肯齐 Peter McKenzie (id:1397428)
       伊恩·穆内 Ian Mune (id:1292702)
       克雷格·帕克 Craig Parker (id:1040564)
       卡梅隆·罗德 Cameron Rhodes (id:1138759)
       约翰·瑞斯-戴维斯 John Rhys-Davies (id:1147054)
       丽芙·泰勒 Liv Tyler (id:1041027)
       大卫·韦瑟莱 David Weatherley (id:1162853)
       雨果·维文 Hugo Weaving (id:1040994)
       菲利普·格里夫 Philip Grieve (id:1216537)
       威廉·约翰逊 William Johnson (id:1370260)
       伊丽莎白·穆迪 Elizabeth Moody (id:1315493)
       布莱恩·瑟金特 Brian Sergent (id:1145461)
       杰德·布罗菲 Jed Brophy (id:1325970)
       诺曼·凯茨 Norman Cates (id:1303617)
       兰德尔·威廉·库克 Randall William Cook (id:1281196)
       萨比恩·克洛森 Sabine Crossen (id:1335966)
       西奥沙福瓦 Siosa Fonua (id:1362754)
       本·弗兰舍姆 Ben Fransham (id:1349888)
       彼得·杰克逊 Peter Jackson (id:1040524)
       艾伦·李 Alan Lee (id:1109822)
       诺埃尔·阿普利比 Noel Appleby (id:1277324)
       Michael Elsworth Michael Elsworth (id:1189529)
       Sarah McLeod Sarah McLeod (id:1123092)
       马丁·桑德森 Martyn Sanderson (id:1033177)
       Harry Sinclair Harry Sinclair (id:1297669)
       吉诺·阿赛维多 Gino Acevedo (id:1276783)
       Jarl Benzon Jarl Benzon (id:1221458)
       J?rn Benzon J?rn Benzon (id:1174553)
       Ben Britton Ben Britton (id:1187436)
       Jonathan Harding Jonathan Harding (id:1327062)
       Taea Hartwell Taea Hartwell (id:1100509)
       Sam Kelly Sam Kelly (id:1425375)
       姜广涛 Guangtao Jiang (id:1317670)
       张磊 Lei Zhang (id:1340809)
       周志强 Zhiqiang Zhou (id:1320628)
       布雷特·麦肯齐 Bret McKenzie (id:1009383)
       彼得·杰克逊 Peter Jackson (id:1040524)
       弗兰·威尔士 Fran Walsh (id:1013998)
       鲍伯·韦恩斯坦 Bob Weinstein (id:1300654)
       杰米·塞尔柯克 Jamie Selkirk (id:1297180)
       Ellen Somers Ellen Somers (id:1298051)
       Tim Sanders Tim Sanders (id:1296631)
       马科·奥德斯凯 Mark Ordesky (id:1045525)
       霍华德·肖 Howard Shore (id:1027953)
       安德鲁·莱斯尼 Andrew Lesnie (id:1289847)
       约翰·吉尔伯特 John Gilbert (id:1276303)
       丹·汉纳 Dan Hennah (id:1286442)
       格兰特·梅杰 Grant Major (id:1290770)
       马克·罗宾斯 Mark Robins (id:1295800)
       Joe Bleakley Joe Bleakley (id:1278791)
       Rob Outterside Rob Outterside (id:1293742)
       约翰·豪 John Howe (id:1093203)
       艾伦·李 Alan Lee (id:1109822)
       理查德·泰勒 Richard Taylor (id:1299006)
       恩吉拉·迪克森 Ngila Dickson (id:1282410)
       理查德·泰勒 Richard Taylor (id:1299006)
       彼得·金 Peter King (id:1288592)
       彼得·欧文 Peter Owen (id:1293760)
       Davina Lamont Davina Lamont (id:1304087)
       杰瑞米·伍德海德 Jeremy Woodhead (id:1301235)
       Jason Docherty Jason Docherty (id:1282513)
       德布拉·伊斯特 Debra East (id:1282944)
       José Luis Pérez José Luis Pérez (id:1295024)
       弗兰·威尔士 Fran Walsh (id:1013998)
       伊恩·穆内 Ian Mune (id:1292702)
       卡罗琳·康宁安 Carolynne Cunningham (id:1281601)
       Guy Campbell Guy Campbell (id:1279963)
       Marc Ashton Marc Ashton (id:1277508)
       克里斯蒂安·瑞沃斯 Christian Rivers (id:1295714)
       丹·赖蒙 Dan Lemmon (id:1289780)
       埃里克·赛恩登 Eric Saindon (id:1038266)
       吉姆·瑞吉尔 Jim Rygiel (id:1296402)
       布莱恩·范特·赫尔 Brian Van't Hul (id:1287132)
       Yannick 'Botex' Dusseault Yannick 'Botex' Dusseault (id:1282869)
       穆雷·蒲柏 Murray Pope (id:1294732)
       盖伊·威廉斯 Guy Williams (id:1306498)
       Jolene McCaffrey Jolene McCaffrey (id:1302479)
       迈克尔·洛伊德 Michael Lloyd (id:1290195)
       马克·斯泰特森 Mark Stetson (id:1298397)
       Imery Watson Imery Watson (id:1306518)
       蒂姆·克罗斯比 Tim Crosbie (id:1281511)
       兰德尔·威廉·库克 Randall William Cook (id:1281196)
       诺曼·凯茨 Norman Cates (id:1303617)
       Alex Lemke Alex Lemke (id:1289776)
       卡尔·胡珀 Carl Hooper (id:1286879)
       Roger Shortt Roger Shortt (id:1303457)
       Peter Doyle Peter Doyle (id:1282686)
       克里斯·加德弗雷 Chris Godfrey (id:1284999)
       Theresa Ellis Theresa Ellis (id:1283145)
       Mark Tait Lewis Mark Tait Lewis (id:1289972)
       Matt Logue Matt Logue (id:1290239)
       Bay Raitt Bay Raitt (id:1295159)
       Henk Prins Henk Prins (id:1294924)
       Laurent Ben-Mimoun Laurent Ben-Mimoun (id:1301846)
       Alfred Mürrle Alfred Mürrle (id:1292790)
       艾琳·莫兰 Eileen Moran (id:1302083)
       Matthias Menz Matthias Menz (id:1291849)
       Nick McKenzie Nick McKenzie (id:1291653)
       Charlie McClellan Charlie McClellan (id:1291480)
       Steven Hornby Steven Hornby (id:1302331)
       伊万·莫兰 Ivan Moran (id:1305218)
       麦克斯·丹尼森 Max Dennison (id:1282254)
       Richard Mahon Richard Mahon (id:1306429)
       Kara Vandeleur Kara Vandeleur (id:1306521)
       Sven Harens Sven Harens (id:1306506)
       Paul Van Ommen Paul Van Ommen (id:1306516)
       Geoff Tobin Geoff Tobin (id:1306733)
       Richard Frances-Moore Richard Frances-Moore (id:1308086)
       迪克·费朗 Deak Ferrand (id:1283613)
       罗杰·库帕里安 Roger Kupelian (id:1276667)
       马特·艾特肯 Matt Aitken (id:1276892)
       格雷格·巴特勒 Greg Butler (id:1279747)
       Richard Bluck Richard Bluck (id:1278831)
       Felix Balbas Felix Balbas (id:1277756)
       G·G·海特曼·戴默斯 G.G. Heitmann Demers (id:1282221)
       Cyndi Ochs Cyndi Ochs (id:1305788)
       大卫·特拉蒙特 David Tremont (id:1299497)
       Jonathan Harding Jonathan Harding (id:1327062)
       汤姆·希普皮 Tom Shippey (id:1138136)

◎简  介
  比尔博·巴金斯是100多岁的霍比特人,住在故乡夏尔,生性喜欢冒险,在年轻时的一次探险经历中,他从怪物咕噜手中得到了至尊魔戒,这枚戒指是黑暗魔君索伦打造的至尊魔戒,拥有奴役世界的邪恶力量,能够统领其他几枚力量之戒,在3000年前的人类联盟和半兽人大军的战役中,联盟取得了胜利 ,并得到了至尊魔戒,数千年的辗转后,魔戒落到咕噜手中,被比尔博碰巧得到。                                       
                                    因为和魔戒的朝夕相处,比尔博的心性也受到了影响,在他111岁的生日宴会上,他决定把一切都留给侄子佛罗多(伊利亚?伍德 饰),继续冒险。                                       
                                    比尔博的好朋友灰袍巫师甘道夫(伊恩·麦克莱恩 饰)知道至尊魔戒的秘密,同时,黑暗魔君索伦已经知道他的魔戒落在哈比族的手中。索伦正在重新建造要塞巴拉多,集结无数的半兽人,准备以大军 夺取魔戒,并且征服全世界。                                       
                                    甘道夫说服佛罗多将魔戒护送到精灵王国瑞文希尔,佛罗多在好朋友山姆、皮...

◎获奖情况 (共19项)
  第74届奥斯卡金像奖 (2002)
  最佳影片(提名)
  最佳导演(提名)
   └──彼得·杰克逊 (id:1040524)
  最佳男配角(提名)
   └──伊恩·麦克莱恩 (id:1054410)
  最佳改编剧本(提名)
  最佳摄影
   └──安德鲁·莱斯尼 (id:1289847)
  最佳剪辑(提名)
   └──约翰·吉尔伯特 (id:1276303)
  最佳视觉效果
  最佳音响(提名)
  最佳艺术指导(提名)
  最佳服装设计(提名)
  最佳化妆
  最佳原创配乐
   └──霍华德·肖 (id:1027953)
  最佳原创歌曲(提名)

  第59届金球奖 (2002)
  电影类 最佳剧情片(提名)
  电影类 最佳导演(提名)
   └──彼得·杰克逊 (id:1040524)
  电影类 最佳原创配乐(提名)
   └──霍华德·肖 (id:1027953)
  电影类 最佳原创歌曲(提名)
   └──恩雅 (id:1045249)

  第26届日本电影学院奖 (2003)
  最佳外语片(提名)

  第2届美国电影学会奖 (2001)
  年度佳片




  1. 合集文件列表:

  2. 1.The.Lord.Of.The.Rings.The.Fellowship.Of.The.Ring.2001.UHD.BluRay.2160p.TrueHD.Atmos.7.1.x265.10bit.HDR-ALT.mkv 22.21GB

  3. 2.The.Lord.Of.The.Rings.The.Return.of.the.King.2003.UHD.BluRay.2160p.TrueHD.Atmos.7.1.x265.10bit.HDR-ALT.mkv 28.03GB

  4. 3.The.Lord.Of.The.Rings.The.Two.Towers.2002.UHD.BluRay.2160p.TrueHD.Atmos.7.1.x265.10bit.HDR-ALT.mkv 21.14GB

复制代码





  1. ##### MediaInfo ######
  2. General
  3. Unique ID                                : 160148519261121745624424464769690245808 (0x787B7B9DFC73095E2BF8074BCD6E1AB0)
  4. Complete name                            : The.Lord.Of.The.Rings.The.Fellowship.Of.The.Ring.2001.UHD.BluRay.2160p.TrueHD.Atmos.7.1.x265.10bit.HDR-ALT.mkv
  5. Format                                   : Matroska
  6. Format version                           : Version 4
  7. File size                                : 22.2 GiB
  8. Duration                                 : 3 h 48 min
  9. Overall bit rate mode                    : Variable
  10. Overall bit rate                         : 13.9 Mb/s
  11. Encoded date                             : UTC 2020-12-13 14:04:11
  12. Writing application                      : mkvmerge v49.0.0 ('Sick Of Losing Soulmates') 64-bit
  13. Writing library                          : libebml v1.4.0 + libmatroska v1.6.1
  14. Video
  15. ID                                       : 1
  16. Format                                   : HEVC
  17. Format/Info                              : High Efficiency Video Coding
  18. Format profile                           : Main 10@L5.1@High
  19. HDR format                               : SMPTE ST 2086, HDR10 compatible
  20. Codec ID                                 : V_MPEGH/ISO/HEVC
  21. Duration                                 : 3 h 48 min
  22. Bit rate                                 : 10.4 Mb/s
  23. Width                                    : 3 840 pixels
  24. Height                                   : 1 608 pixels
  25. Display aspect ratio                     : 2.40:1
  26. Frame rate mode                          : Constant
  27. Frame rate                               : 23.976 (24000/1001/53354) FPS
  28. Color space                              : YUV
  29. Chroma subsampling                       : 4:2:0 (Type 2)
  30. Bit depth                                : 10 bits
  31. Bits/(Pixel*Frame)                       : 0.070
  32. Stream size                              : 16.5 GiB (74%)
  33. Title                                    : HEVC, x265Main10@L5.1@High, 24/1.001 fps @ 10366 kbps
  34. Writing library                          : x265 3.4+14-gd419c7152:[Windows][GCC 10.2.0][64 bit] 10bit
  35. Encoding settings                        : cpuid=533541111039 / frame-threads=5 / numa-pools=44,44 / wpp / pmode / pme / no-psnr / no-ssim / log-level=2 / input-csp=1 / input-res=3840x1608 / interlace=0 / total-frames=328265 / level-idc=51 / high-tier=1 / uhd-bd=0 / ref=4 / no-allow-non-conformance / repeat-headers / annexb / no-aud / hrd / info / hash=0 / no-temporal-layers / no-open-gop / min-keyint=24 / keyint=240 / gop-lookahead=0 / bframes=8 / b-adapt=2 / b-pyramid / bframe-bias=0 / rc-lookahead=25 / lookahead-slices=0 / NTMzNTQ=uuDQuD2mJt9fsCf / scenecut=40 / hist-scenecut=0 / radl=0 / no-splice / no-intra-refresh / ctu=64 / min-cu-size=8 / no-rect / no-amp / max-tu-size=32 / tu-inter-depth=3 / tu-intra-depth=3 / limit-tu=4 / rdoq-level=2 / dynamic-rd=0.00 / no-ssim-rd / signhide / no-tskip / nr-intra=0 / nr-inter=0 / no-constrained-intra / no-strong-intra-smoothing / max-merge=4 / limit-refs=1 / limit-modes / me=3 / subme=4 / merange=57 / temporal-mvp / no-frame-dup / no-hme / weightp / weightb / no-analyze-src-pics / deblock=-3:-3 / no-sao / no-sao-non-deblock / rd=6 / selective-sao=0 / no-early-skip / rskip / no-fast-intra / no-tskip-fast / no-cu-lossless / b-intra / no-splitrd-skip / rdpenalty=0 / psy-rd=2.00 / psy-rdoq=1.00 / no-rd-refine / no-lossless / cbqpoffs=0 / crqpoffs=0 / rc=crf / crf=19.5 / qcomp=0.65 / qpstep=4 / stats-write=0 / stats-read=0 / vbv-maxrate=160000 / vbv-bufsize=160000 / vbv-init=0.9 / crf-max=0.0 / crf-min=0.0 / ipratio=1.30 / pbratio=1.20 / aq-mode=3 / aq-strength=0.85 / cutree / zone-count=0 / no-strict-cbr / qg-size=32 / no-rc-grain / qpmax=69 / qpmin=0 / no-const-vbv / sar=1 / overscan=0 / videoformat=5 / range=0 / colorprim=9 / transfer=16 / colormatrix=9 / chromaloc=1 / chromaloc-top=2 / chromaloc-bottom=2 / display-window=0 / master-display=G(13250,34500)B(7500,3000)R(34000,16000)WP(15635,16450)L(40000000,50) / cll=602,184 / min-luma=0 / max-luma=1023 / log2-max-poc-lsb=8 / vui-timing-info / vui-hrd-info / slices=1 / no-opt-qp-pps / no-opt-ref-list-length-pps / no-multi-pass-opt-rps / scenecut-bias=0.05 / hist-threshold=0.03 / no-opt-cu-delta-qp / no-aq-motion / hdr10 / hdr10-opt / no-dhdr10-opt / no-idr-recovery-sei / analysis-reuse-level=0 / analysis-save-reuse-level=0 / analysis-load-reuse-level=0 / scale-factor=0 / refine-intra=0 / refine-inter=0 / refine-mv=1 / refine-ctu-distortion=0 / no-limit-sao / ctu-info=0 / no-lowpass-dct / refine-analysis-type=0 / copy-pic=1 / max-ausize-factor=1.0 / no-dynamic-refine / no-single-sei / no-hevc-aq / no-svt / no-field / qp-adaptation-range=1.00 / no-scenecut-aware-qpconformance-window-offsets / right=0 / bottom=0 / NTMzNTQ= / decoder-max-rate=0
  36. Language                                 : English
  37. Default                                  : Yes
  38. Forced                                   : No
  39. Color range                              : Limited
  40. Color primaries                          : BT.2020
  41. Transfer characteristics                 : PQ
  42. Matrix coefficients                      : BT.2020 non-constant
  43. Mastering display color primaries        : Display P3
  44. Mastering display luminance              : min: 0.0050 cd/m2, max: 4000 cd/m2
  45. Maximum Content Light Level              : 602 cd/m2
  46. Maximum Frame-Average Light Level        : 184 cd/m2
  47. Audio #1
  48. ID                                       : 2
  49. Format                                   : MLP FBA 16-ch
  50. Format/Info                              : Meridian Lossless Packing FBA with 16-channel presentation
  51. Commercial name                          : Dolby TrueHD with Dolby Atmos
  52. Codec ID                                 : A_TRUEHD
  53. Duration                                 : 3 h 48 min
  54. Bit rate mode                            : Variable
  55. Bit rate                                 : 2 995 kb/s
  56. Maximum bit rate                         : 4 992 kb/s
  57. Channel(s)                               : 8 channels
  58. Channel layout                           : L R C LFE Ls Rs Lb Rb
  59. Sampling rate                            : 48.0 kHz
  60. Frame rate                               : 1 200.000 FPS (40 SPF)
  61. Compression mode                         : Lossless
  62. Stream size                              : 4.77 GiB (21%)
  63. Title                                    : English Dolby TrueHD 7.1 (Atmos) @ 3448 kbps
  64. Language                                 : English
  65. Default                                  : Yes
  66. Forced                                   : No
  67. Number of dynamic objects                : 11
  68. Bed channel count                        : 1 channel
  69. Bed channel configuration                : LFE
  70. Audio #2
  71. ID                                       : 3
  72. Format                                   : AC-3
  73. Format/Info                              : Audio Coding 3
  74. Commercial name                          : Dolby Digital
  75. Codec ID                                 : A_AC3
  76. Duration                                 : 3 h 48 min
  77. Bit rate mode                            : Constant
  78. Bit rate                                 : 448 kb/s
  79. Channel(s)                               : 6 channels
  80. Channel layout                           : L R C LFE Ls Rs
  81. Sampling rate                            : 48.0 kHz
  82. Frame rate                               : 31.250 FPS (1536 SPF)
  83. Compression mode                         : Lossy
  84. Stream size                              : 731 MiB (3%)
  85. Title                                    : English AC3 5.1-EX @ 448 kbps
  86. Language                                 : English
  87. Service kind                             : Complete Main
  88. Default                                  : No
  89. Forced                                   : No
  90. Text #1
  91. ID                                       : 4
  92. Format                                   : PGS
  93. Codec ID                                 : S_HDMV/PGS
  94. Codec ID/Info                            : Picture based subtitle format used on BDs/HD-DVDs
  95. Duration                                 : 3 h 19 min
  96. Bit rate                                 : 23.2 kb/s
  97. Count of elements                        : 3634
  98. Stream size                              : 33.2 MiB (0%)
  99. Title                                    : Eng/SUP
  100. Language                                 : English
  101. Default                                  : No
  102. Forced                                   : No
  103. Text #2
  104. ID                                       : 5
  105. Format                                   : PGS
  106. Codec ID                                 : S_HDMV/PGS
  107. Codec ID/Info                            : Picture based subtitle format used on BDs/HD-DVDs
  108. Duration                                 : 3 h 27 min
  109. Bit rate                                 : 18.9 kb/s
  110. Count of elements                        : 3516
  111. Stream size                              : 28.0 MiB (0%)
  112. Title                                    : Cht/SUP  原盘繁体(TW)
  113. Language                                 : Chinese
  114. Default                                  : Yes
  115. Forced                                   : No
  116. Text #3
  117. ID                                       : 6
  118. Format                                   : PGS
  119. Codec ID                                 : S_HDMV/PGS
  120. Codec ID/Info                            : Picture based subtitle format used on BDs/HD-DVDs
  121. Duration                                 : 3 h 27 min
  122. Bit rate                                 : 17.7 kb/s
  123. Count of elements                        : 3450
  124. Stream size                              : 26.2 MiB (0%)
  125. Title                                    : Cht/SUP  原盘繁体(HK)
  126. Language                                 : Chinese
  127. Default                                  : No
  128. Forced                                   : No
  129. Menu
  130. 00:00:00.000                             : :第 01 章
  131. 00:07:36.790                             : :第 02 章
  132. 00:10:35.635                             : :第 03 章
  133. 00:15:39.814                             : :第 04 章
  134. 00:19:58.447                             : :第 05 章
  135. 00:25:32.573                             : :第 06 章
  136. 00:29:57.337                             : :第 07 章
  137. 00:32:10.637                             : :第 08 章
  138. 00:34:51.756                             : :第 09 章
  139. 00:36:18.134                             : :第 10 章
  140. 00:45:04.118                             : :第 11 章
  141. 00:46:44.260                             : :第 12 章
  142. 00:51:21.370                             : :第 13 章
  143. 00:55:12.392                             : :第 14 章
  144. 00:57:30.030                             : :第 15 章
  145. 01:03:31.474                             : :第 16 章
  146. 01:07:16.074                             : :第 17 章
  147. 01:08:53.546                             : :第 18 章
  148. 01:10:35.898                             : :第 19 章
  149. 01:15:15.344                             : :第 20 章
  150. 01:17:46.579                             : :第 21 章
  151. 01:24:11.546                             : :第 22 章
  152. 01:26:12.459                             : :第 23 章
  153. 01:29:41.543                             : :第 24 章
  154. 01:33:14.631                             : :第 25 章
  155. 01:35:54.040                             : :第 26 章
  156. 01:37:32.930                             : :第 27 章
  157. 01:45:38.400                             : :第 01 章
  158. 01:46:52.182                             : :第 02 章
  159. 01:48:35.577                             : :第 03 章
  160. 01:49:52.988                             : :第 04 章
  161. 01:52:58.798                             : :第 05 章
  162. 01:57:45.084                             : :第 06 章
  163. 02:04:10.469                             : :第 07 章
  164. 02:10:40.776                             : :第 08 章
  165. 02:20:05.507                             : :第 09 章
  166. 02:29:46.963                             : :第 10 章
  167. 02:32:59.613                             : :第 11 章
  168. 02:40:16.633                             : :第 12 章
  169. 02:45:56.640                             : :第 13 章
  170. 02:47:36.865                             : :第 14 章
  171. 02:53:00.521                             : :第 15 章
  172. 02:57:52.772                             : :第 16 章
  173. 03:04:20.576                             : :第 17 章
  174. 03:11:36.470                             : :第 18 章
  175. 03:14:18.798                             : :第 19 章
  176. 03:20:36.551                             : :第 20 章
  177. 03:28:17.511                             : :第 21 章
复制代码




TAGS 动作 奇幻 冒险 剧情 /

磁力链:
  • magnet:?xt=urn:btih:D232BD25F5F0CCCF5E55A053F5CD293B0B23B547
上传的附件:
BT9527电影天堂 1、BT9527电影天堂提供的BT文件均来源于互联网抓取,只供网友学习交流、技术提升使用。
2、我们遵守BitTorrent点对点协议原则,任何版权问题请联系原资源发布商,我们不处理任何版权纠纷,谢谢!如有争议请联系邮箱:BT9527#hotmail.com(#换成@)
3、如果您发现某页面或地址有错误,请联系站长邮箱BT9527#hotmail.com(#换成@),我们会尽快处理。您的热心是对BT9527电影天堂最大的支持。
4、本站建议去正规影院观看电影以支持电影行业发展。
最新回复 (0)

你可以在 登录 or 注册 后,对此帖发表评论!

返回
发新帖