霍比特人[共3部合集][繁英字幕].The.Hobbit.Trilogy.2012-2014.Extended.UHD.BluRay.2160p.TrueHD.Atmos.7.1.x265.10bit.HDR-ALT 63.46GB

版主小s 4月前 258



◎译  名 霍比特人1:意外之旅 / 哈比人:不思议之旅(港) / 哈比人:意外旅程(台) / The Hobbit: Part 1 / 指环王前传:霍比特人(上)
◎片  名 The Hobbit: An Unexpected Journey
◎年  代 2012
◎产  地 美国 / 新西兰
◎类  别 动作 / 奇幻 / 冒险
◎语  言 英语
◎上映日期 2013-02-22(中国大陆) / 2012-11-28(新西兰首映) / 2012-12-14(美国)
◎IMDb链接 https://www.imdb.com/title/tt0903624/
◎豆瓣评分 8.4/10 (382181人评价)
◎豆瓣链接 https://movie.douban.com/subject/1966182/
◎片  长 169分钟
◎导  演 彼得·杰克逊 Peter Jackson (id:1040524)
◎编  剧 弗兰·威尔士 Fran Walsh (id:1013998)
       菲利帕·鲍恩斯 Philippa Boyens (id:1279114)
       彼得·杰克逊 Peter Jackson (id:1040524)
       吉尔莫·德尔·托罗 Guillermo del Toro (id:1027182)
       J. R. R. 托尔金 J. R. R. Tolkien (id:1152849)
◎演  员 伊恩·麦克莱恩 Ian McKellen (id:1054410)
       马丁·弗瑞曼 Martin Freeman (id:1049612)
       理查德·阿米蒂奇 Richard Armitage (id:1022639)
       肯·斯托特 Ken Stott (id:1313404)
       格拉汉姆·麦克泰维什 Graham McTavish (id:1323191)
       詹姆斯·内斯比特 James Nesbitt (id:1013997)
       迪恩·奥戈曼 Dean O'Gorman (id:1131925)
       艾丹·特纳 Aidan Turner (id:1018162)
       雨果·维文 Hugo Weaving (id:1040994)
       凯特·布兰切特 Cate Blanchett (id:1054441)
       安迪·瑟金斯 Andy Serkis (id:1002708)
       西尔维斯特·迈可伊 Sylvester McCoy (id:1118664)
       克里斯托弗·李 Christopher Lee (id:1054467)
       伊利亚·伍德 Elijah Wood (id:1054395)
       伊安·霍姆 Ian Holm (id:1049594)
       李·佩斯 Lee Pace (id:1018975)
       本尼迪克特·康伯巴奇 Benedict Cumberbatch (id:1009405)
       姜广涛 Guangtao Jiang (id:1317670)
       马努·贝内特 Manu Bennett (id:1064898)
       布雷特·麦肯齐 Bret McKenzie (id:1009383)
       泰瑞·诺塔里 Terry Notary (id:1341026)
       陆建艺 Jianyi Lu (id:1334341)
       亚当·布朗 Adam Brown (id:1325972)
       柯南·史蒂文斯 Conan Stevens  (id:1320165)
       布耐恩·布莱塞得 Brian Blessed (id:1027900)
       杰德·布罗菲 Jed Brophy (id:1325970)
       马克·哈德洛 Mark Hadlow (id:1325971)
       约翰·凯伦 John Callen (id:1325969)
       斯蒂芬·亨特 Stephen Hunter (id:1325968)
       彼得·汉布尔顿 Peter Hambleton (id:1285902)
       威廉·基尔舍 William Kircher (id:1288618)
       巴瑞·哈姆弗莱斯 Barry Humphries (id:1004926)
       鲁比·阿什伯恩·瑟金斯 Ruby Ashbourne Serkis (id:1434680)
       约翰·劳斯 John Rawls (id:1327064)
       迈克尔·米兹拉希 Michael Mizrahi (id:1327025)
       海登·J·维尔 Hayden J. Weal (id:1445225)
       史蒂芬·乌瑞 Stephen Ure (id:1155436)
       杰弗瑞·托马斯 Jeffrey Thomas (id:1349041)
       周志强 Zhiqiang Zhou (id:1320628)
       彼得·杰克逊 Peter Jackson (id:1040524)
       弗兰·威尔士 Fran Walsh (id:1013998)
       卡勒姆·葛林 Callum Greene (id:1032949)
       霍华德·肖 Howard Shore (id:1027953)
       安德鲁·莱斯尼 Andrew Lesnie (id:1289847)
       吉尔莫·德尔·托罗 Guillermo del Toro (id:1027182)
       拉·文森特 Ra Vincent (id:1326164)
       艾伦·李 Alan Lee (id:1109822)
       约翰·豪 John Howe (id:1093203)
       理查德·泰勒 Richard Taylor (id:1299006)
       鲍勃·巴克 Bob Buck (id:1306441)
       安·马斯克里 Ann Maskrey (id:1323004)
       里克·芬勒特 Rick Findlater (id:1326167)
       安迪·瑟金斯 Andy Serkis (id:1002708)
       理查德·泰勒 Richard Taylor (id:1299006)
       迈克尔·科琴斯 Michael Cozens (id:1408610)
       埃里克·赛恩登 Eric Saindon (id:1038266)
       瑞秋·劳伦森 Rachel Laurenson (id:1414103)
       大卫·克莱顿 David Clayton (id:1326160)
       勒妮·卡塔尔多 Renee Cataldo (id:1339077)

◎简  介
  中土最后一座矮人王国埃尔波尔,巍峨壮丽,庄严雄伟。老国王索尔积聚大量财富,却引来恶龙史茅革的觊觎和荼毒,最终导致这座城池陷落。许多年后,灰袍巫师甘道夫(伊恩·麦凯伦 Ian McKellen 饰)找到弗罗多的舅舅——霍比特人比尔博·巴金斯(马丁·弗里曼 Martin John C. Freeman 饰),邀请他加入由13名矮人组成的远征队伍。原来史茅革已多年不见声息,背负家国仇恨的矮人王子索林(理查德·阿米蒂奇 Richard Armitage 饰)希望借此机会收复故土。经过一番考虑,巴金斯决定加入。令他想不到的是,远征旅途多灾多难,与索林结下深仇大恨的苍白半兽人及其爪牙阴魂不散,更有食人鬼和石人制造的无数艰险。而在旅途中,巴金斯也意外得到了日后影响整个中土的重要宝物……                                    
                                本片根据J.R.R·托尔金的同名原著改编。

◎获奖情况 (共17项)
  第85届奥斯卡金像奖 (2013)
  最佳视觉效果(提名)
  最佳艺术指导(提名)
  最佳化妆与发型设计(提名)

  第41届动画安妮奖 (2014)
  最佳真人电影动画角色

  第22届MTV电影奖 (2013)
  MTV电影奖 最佳惊恐戏表演(提名)
   └──马丁·弗瑞曼 (id:1049612)
  MTV电影奖 最佳英雄形象
   └──马丁·弗瑞曼 (id:1049612)

  第18届美国评论家选择电影奖 (2013)
  最佳美术指导(提名)
  最佳服装设计(提名)
  最佳发型化妆(提名)
  最佳视觉效果(提名)

  第11届华盛顿影评人协会奖 (2012)
  最佳配乐(提名)
   └──霍华德·肖 (id:1027953)

  第12届凤凰城影评人协会奖 (2012)
  最佳服装设计(提名)
  最佳艺术指导(提名)
   └──丹·汉纳 (id:1286442)
  最佳视觉效果(提名)

  第3届豆瓣电影鑫像奖 (2013)
  鑫豆单元 最佳视觉效果(提名)
  鑫豆单元 最佳歌曲(提名)
  鑫豆单元 最佳落选影片(提名)




  1. 合集文件列表:

  2. 1.The.Hobbit.An.Unexpected.Journey.2012.UHD.BluRay.2160p.TrueHD.Atmos.7.1.x265.10bit.HDR-ALT.mkv 23.29GB

  3. 2.The.Hobbit.The.Battle.of.the.Five.Armies.2014.UHD.BluRay.2160p.TrueHD.Atmos.7.1.x265.10bit.HDR-ALT.mkv 18.49GB

  4. 3.The.Hobbit.The.Desolation.of.Smaug.2013.UHD.BluRay.2160p.TrueHD.Atmos.7.1.x265.10bit.HDR-ALT.mkv 21.69GB

复制代码





  1. ##### MediaInfo ######
  2. General
  3. Unique ID                                : 117077015417028706260982159481563348843 (0x58143685CC9A11F0FDDD713D7E2D7F6B)
  4. Complete name                            : The.Hobbit.An.Unexpected.Journey.2012.UHD.BluRay.2160p.TrueHD.Atmos.7.1.x265.10bit.HDR-ALT.mkv
  5. Format                                   : Matroska
  6. Format version                           : Version 4
  7. File size                                : 23.3 GiB
  8. Duration                                 : 3 h 2 min
  9. Overall bit rate mode                    : Variable
  10. Overall bit rate                         : 18.3 Mb/s
  11. Encoded date                             : UTC 2020-12-21 13:04:11
  12. Writing application                      : mkvmerge v49.0.0 ('Sick Of Losing Soulmates') 64-bit
  13. Writing library                          : libebml v1.4.0 + libmatroska v1.6.1
  14. Video
  15. ID                                       : 1
  16. Format                                   : HEVC
  17. Format/Info                              : High Efficiency Video Coding
  18. Format profile                           : Main 10@L5.1@High
  19. HDR format                               : SMPTE ST 2086, HDR10 compatible
  20. Codec ID                                 : V_MPEGH/ISO/HEVC
  21. Duration                                 : 3 h 2 min
  22. Bit rate                                 : 14.3 Mb/s
  23. Width                                    : 3 840 pixels
  24. Height                                   : 1 608 pixels
  25. Display aspect ratio                     : 2.40:1
  26. Frame rate mode                          : Constant
  27. Frame rate                               : 23.976 (24000/1001/53354) FPS
  28. Color space                              : YUV
  29. Chroma subsampling                       : 4:2:0 (Type 2)
  30. Bit depth                                : 10 bits
  31. Bits/(Pixel*Frame)                       : 0.097
  32. Stream size                              : 18.2 GiB (78%)
  33. Title                                    : HEVC, x265Main10@L5.1@High, 24/1.001 fps @ 14299 kbps
  34. Writing library                          : x265 3.4+14-gd419c7152:[Windows][GCC 10.2.0][64 bit] 10bit
  35. Encoding settings                        : cpuid=533541111039 / frame-threads=5 / numa-pools=44,44 / wpp / pmode / pme / no-psnr / no-ssim / log-level=2 / input-csp=1 / input-res=3840x1608 / interlace=0 / total-frames=262524 / level-idc=51 / high-tier=1 / uhd-bd=0 / ref=4 / no-allow-non-conformance / repeat-headers / annexb / no-aud / hrd / info / hash=0 / no-temporal-layers / no-open-gop / min-keyint=24 / keyint=240 / gop-lookahead=0 / bframes=8 / b-adapt=2 / b-pyramid / bframe-bias=0 / rc-lookahead=25 / lookahead-slices=0 / NTMzNTQ=uuDQuD2mJt9fsCf / scenecut=40 / hist-scenecut=0 / radl=0 / no-splice / no-intra-refresh / ctu=64 / min-cu-size=8 / no-rect / no-amp / max-tu-size=32 / tu-inter-depth=3 / tu-intra-depth=3 / limit-tu=4 / rdoq-level=2 / dynamic-rd=0.00 / no-ssim-rd / signhide / no-tskip / nr-intra=0 / nr-inter=0 / no-constrained-intra / no-strong-intra-smoothing / max-merge=4 / limit-refs=1 / limit-modes / me=3 / subme=4 / merange=57 / temporal-mvp / no-frame-dup / no-hme / weightp / weightb / no-analyze-src-pics / deblock=-3:-3 / no-sao / no-sao-non-deblock / rd=6 / selective-sao=0 / no-early-skip / rskip / no-fast-intra / no-tskip-fast / no-cu-lossless / b-intra / no-splitrd-skip / rdpenalty=0 / psy-rd=2.00 / psy-rdoq=1.00 / no-rd-refine / no-lossless / cbqpoffs=0 / crqpoffs=0 / rc=crf / crf=19.5 / qcomp=0.65 / qpstep=4 / stats-write=0 / stats-read=0 / vbv-maxrate=160000 / vbv-bufsize=160000 / vbv-init=0.9 / crf-max=0.0 / crf-min=0.0 / ipratio=1.30 / pbratio=1.20 / aq-mode=3 / aq-strength=0.85 / cutree / zone-count=0 / no-strict-cbr / qg-size=32 / no-rc-grain / qpmax=69 / qpmin=0 / no-const-vbv / sar=1 / overscan=0 / videoformat=5 / range=0 / colorprim=9 / transfer=16 / colormatrix=9 / chromaloc=1 / chromaloc-top=2 / chromaloc-bottom=2 / display-window=0 / master-display=G(13250,34500)B(7500,3000)R(34000,16000)WP(15635,16450)L(40000000,50) / cll=810,188 / min-luma=0 / max-luma=1023 / log2-max-poc-lsb=8 / vui-timing-info / vui-hrd-info / slices=1 / no-opt-qp-pps / no-opt-ref-list-length-pps / no-multi-pass-opt-rps / scenecut-bias=0.05 / hist-threshold=0.03 / no-opt-cu-delta-qp / no-aq-motion / hdr10 / hdr10-opt / no-dhdr10-opt / no-idr-recovery-sei / analysis-reuse-level=0 / analysis-save-reuse-level=0 / analysis-load-reuse-level=0 / scale-factor=0 / refine-intra=0 / refine-inter=0 / refine-mv=1 / refine-ctu-distortion=0 / no-limit-sao / ctu-info=0 / no-lowpass-dct / refine-analysis-type=0 / copy-pic=1 / max-ausize-factor=1.0 / no-dynamic-refine / no-single-sei / no-hevc-aq / no-svt / no-field / qp-adaptation-range=1.00 / no-scenecut-aware-qpconformance-window-offsets / right=0 / bottom=0 / NTMzNTQ= / decoder-max-rate=0
  36. Language                                 : English
  37. Default                                  : Yes
  38. Forced                                   : No
  39. Color range                              : Limited
  40. Color primaries                          : BT.2020
  41. Transfer characteristics                 : PQ
  42. Matrix coefficients                      : BT.2020 non-constant
  43. Mastering display color primaries        : Display P3
  44. Mastering display luminance              : min: 0.0050 cd/m2, max: 4000 cd/m2
  45. Maximum Content Light Level              : 810 cd/m2
  46. Maximum Frame-Average Light Level        : 188 cd/m2
  47. Audio #1
  48. ID                                       : 2
  49. Format                                   : MLP FBA 16-ch
  50. Format/Info                              : Meridian Lossless Packing FBA with 16-channel presentation
  51. Commercial name                          : Dolby TrueHD with Dolby Atmos
  52. Codec ID                                 : A_TRUEHD
  53. Duration                                 : 3 h 2 min
  54. Bit rate mode                            : Variable
  55. Bit rate                                 : 3 403 kb/s
  56. Maximum bit rate                         : 5 616 kb/s
  57. Channel(s)                               : 8 channels
  58. Channel layout                           : L R C LFE Ls Rs Lb Rb
  59. Sampling rate                            : 48.0 kHz
  60. Frame rate                               : 1 200.000 FPS (40 SPF)
  61. Compression mode                         : Lossless
  62. Stream size                              : 4.34 GiB (19%)
  63. Title                                    : English Dolby TrueHD 7.1 (Atmos) @ 3851 kbps
  64. Language                                 : English
  65. Default                                  : Yes
  66. Forced                                   : No
  67. Number of dynamic objects                : 11
  68. Bed channel count                        : 1 channel
  69. Bed channel configuration                : LFE
  70. Audio #2
  71. ID                                       : 3
  72. Format                                   : AC-3
  73. Format/Info                              : Audio Coding 3
  74. Commercial name                          : Dolby Digital
  75. Codec ID                                 : A_AC3
  76. Duration                                 : 3 h 2 min
  77. Bit rate mode                            : Constant
  78. Bit rate                                 : 448 kb/s
  79. Channel(s)                               : 6 channels
  80. Channel layout                           : L R C LFE Ls Rs
  81. Sampling rate                            : 48.0 kHz
  82. Frame rate                               : 31.250 FPS (1536 SPF)
  83. Compression mode                         : Lossy
  84. Stream size                              : 585 MiB (2%)
  85. Title                                    : English AC3 5.1-EX @ 448 kbps
  86. Language                                 : English
  87. Service kind                             : Complete Main
  88. Default                                  : No
  89. Forced                                   : No
  90. Text #1
  91. ID                                       : 4
  92. Format                                   : PGS
  93. Codec ID                                 : S_HDMV/PGS
  94. Codec ID/Info                            : Picture based subtitle format used on BDs/HD-DVDs
  95. Duration                                 : 2 h 55 min
  96. Bit rate                                 : 29.5 kb/s
  97. Count of elements                        : 4950
  98. Stream size                              : 37.2 MiB (0%)
  99. Title                                    : Eng/SUP
  100. Language                                 : English
  101. Default                                  : No
  102. Forced                                   : No
  103. Text #2
  104. ID                                       : 5
  105. Format                                   : PGS
  106. Codec ID                                 : S_HDMV/PGS
  107. Codec ID/Info                            : Picture based subtitle format used on BDs/HD-DVDs
  108. Duration                                 : 3 h 0 min
  109. Bit rate                                 : 21.0 kb/s
  110. Count of elements                        : 4350
  111. Stream size                              : 27.1 MiB (0%)
  112. Title                                    : Cht/SUP  原盘繁体
  113. Language                                 : Chinese
  114. Default                                  : Yes
  115. Forced                                   : No
  116. Menu
  117. 00:00:00.000                             : :第 01 章
  118. 00:10:11.569                             : :第 02 章
  119. 00:14:08.347                             : :第 03 章
  120. 00:17:26.921                             : :第 04 章
  121. 00:18:44.290                             : :第 05 章
  122. 00:23:16.270                             : :第 06 章
  123. 00:27:59.136                             : :第 07 章
  124. 00:36:04.537                             : :第 08 章
  125. 00:41:16.933                             : :第 09 章
  126. 00:46:30.496                             : :第 10 章
  127. 00:53:03.847                             : :第 11 章
  128. 00:58:07.317                             : :第 12 章
  129. 00:59:54.966                             : :第 13 章
  130. 01:10:42.071                             : :第 14 章
  131. 01:15:01.497                             : :第 15 章
  132. 01:18:52.478                             : :第 16 章
  133. 01:24:56.591                             : :第 17 章
  134. 01:30:34.095                             : :第 18 章
  135. 01:34:10.270                             : :第 19 章
  136. 01:37:24.130                             : :第 20 章
  137. 01:39:03.146                             : :第 21 章
  138. 01:41:40.469                             : :第 22 章
  139. 01:50:22.199                             : :第 23 章
  140. 01:52:59.439                             : :第 24 章
  141. 01:59:06.014                             : :第 25 章
  142. 02:03:57.180                             : :第 26 章
  143. 02:09:51.242                             : :第 27 章
  144. 02:23:21.092                             : :第 28 章
  145. 02:25:18.543                             : :第 29 章
  146. 02:26:30.865                             : :第 30 章
  147. 02:30:52.585                             : :第 31 章
  148. 02:33:00.213                             : :第 32 章
  149. 02:35:52.260                             : :第 33 章
  150. 02:46:50.876                             : :第 34 章
  151. 02:52:21.039                             : :第 35 章
复制代码




TAGS 动作 奇幻 冒险 /

磁力链:
  • magnet:?xt=urn:btih:EE4B20C7BA5F04BAF6AC2CDD278D83F68EB74A6E
上传的附件:
BT9527电影天堂 1、BT9527电影天堂提供的BT文件均来源于互联网抓取,只供网友学习交流、技术提升使用。
2、我们遵守BitTorrent点对点协议原则,任何版权问题请联系原资源发布商,我们不处理任何版权纠纷,谢谢!如有争议请联系邮箱:BT9527#hotmail.com(#换成@)
3、如果您发现某页面或地址有错误,请联系站长邮箱BT9527#hotmail.com(#换成@),我们会尽快处理。您的热心是对BT9527电影天堂最大的支持。
4、本站建议去正规影院观看电影以支持电影行业发展。
最新回复 (0)

你可以在 登录 or 注册 后,对此帖发表评论!

返回
发新帖