深夜食堂2[中英字幕].Midnight.Diner.2.2016.BluRay.1080p.x265.10bit-MiniHD 5.38GB

版主小s 23天前 335



◎译  名 深夜食堂2 / 深夜食堂电影版2
◎片  名 続?深夜食堂
◎年  代 2016
◎产  地 日本
◎类  别 剧情
◎语  言 日语
◎上映日期 2017-07-18(中国大陆) / 2016-11-05(日本)
◎IMDb链接 https://www.imdb.com/title/tt5741902/
◎豆瓣评分 8.0/10 (48744人评价)
◎豆瓣链接 https://movie.douban.com/subject/26798437/
◎片  长 108分钟
◎导  演 松冈锭司 Joji Matsuoka (id:1291293)
◎编  剧 真边克彦 Katsuhiko Manabe (id:1320379)
       小嶋健作 Kensaku Kojima (id:1345592)
       松冈锭司 Joji Matsuoka (id:1291293)
       安倍夜郎 Yar? Abe (id:1320380)
◎演  员 小林薰 Kaoru Kobayashi (id:1051523)
       河井青叶 Aoba Kawai (id:1043635)
       佐藤浩市 K?ichi Sat? (id:1037432)
       池松壮亮 Sosuke Ikematsu (id:1009895)
       木村绿子 Midoriko Kimura (id:1323325)
       小岛圣 Hijiri Kojima (id:1033824)
       渡边美佐子 Misako Watanabe (id:1029600)
       井川比佐志 Hisashi Igawa (id:1042429)
       多部未华子 Mikako Tabe (id:1005885)
       余贵美子 Kimiko Yo (id:1048388)
       小田切让 J? Odagiri (id:1007189)
       不破万作 Mansaku Fuwa (id:1323495)
       绫田俊树 Toshiki Ayata (id:1337259)
       松重丰 Yutaka Matsushige (id:1016968)
       光石研 Ken Mitsuishi (id:1029037)
       安藤玉惠 Tamae And? (id:1321863)
       须藤理彩 Risa Sud? (id:1026778)
       小林麻子 Asako Kobayashi (id:1000442)
       吉本菜穂子 Yoshimoto Noriko (id:1375103)
       中山佑一朗 Yuichiro Nakayama (id:1275643)
       山中崇 Takashi Yamanaka (id:1319356)
       宇野祥平 Sh?hei Uno (id:1340184)
       金子清文 Kiyobumi Kaneko (id:1375106)
       平田薰 Kaoru Hirata (id:1316249)
       筱原友希子 Yukiko Shinohara (id:1334748)
       片冈礼子 Reiko Kataoka (id:1037870)
       谷村美月 Mitsuki Tanimura (id:1020236)

◎简  介
  小小的深夜食堂,迎来送往这个喧嚣都市内奔波疲惫的人们。他们漫无目的,或者迷失方向,却往往不经意间在这个蕞尔角落找到前行的希望。每当在工作中遇到烦心事,赤冢范子(河井青叶 饰)便穿着丧服在大街上游荡。偶然机缘,她在葬礼上结识了一名男子(佐藤浩市 饰),干涸的心田便为爱情所滋润。经营荞麦面生意的高木圣子(木村绿 饰)与儿子清太(池松壮亮 饰)相依为命,清太和年龄长于自己的木村纱织(小岛圣 饰)相恋,而一直与圣子好姐妹相称的圣子却全不知情。年逾古稀的老太太夕起子(渡边美佐子 饰)被诈骗电话骗到了东京,食堂的热心人们担心她的钱被人骗走,老奶奶则不以为意。这趟前来,她仿佛有个未了的心愿。                                    
                                本片根据同名漫画改编,为同名深夜剧的第二部电影版。

◎获奖情况 (共2项)
  第4届豆瓣电影年度榜单 (2017)
  评分最高的日本电影(提名)
  7月最受关注电影(提名)

  1. ##### MediaInfo ######
  2. General
  3. Unique ID                                : 190838273671361253322217289129370901703 (0x8F921D551B76EF66B7DB63FBCA9CDCC7)
  4. Complete name                            : Midnight.Diner.2.2016.BluRay.1080p.x265.10bit-MiniHD.mkv
  5. Format                                   : Matroska
  6. Format version                           : Version 4
  7. File size                                : 5.38 GiB
  8. Duration                                 : 1 h 47 min
  9. Overall bit rate                         : 7 145 kb/s
  10. Encoded date                             : UTC 2017-06-02 09:45:28
  11. Writing application                      : mkvmerge v11.0.0 ('Alive') 64bit
  12. Writing library                          : libebml v1.3.4 + libmatroska v1.4.5
  13. Video
  14. ID                                       : 1
  15. Format                                   : HEVC
  16. Format/Info                              : High Efficiency Video Coding
  17. Codec ID                                 : V_MPEGH/ISO/HEVC
  18. Duration                                 : 1 h 47 min
  19. Bit rate                                 : 6 397 kb/s
  20. Width                                    : 1 920 pixels
  21. Height                                   : 1 038 pixels
  22. Display aspect ratio                     : 1.85:1
  23. Frame rate mode                          : Constant
  24. Frame rate                               : 24.000 FPS
  25. Bits/(Pixel*Frame)                       : 0.134
  26. Stream size                              : 4.82 GiB (90%)
  27. Default                                  : Yes
  28. Forced                                   : No
  29. Audio
  30. ID                                       : 2
  31. Format                                   : AC-3
  32. Format/Info                              : Audio Coding 3
  33. Commercial name                          : Dolby Digital
  34. Codec ID                                 : A_AC3
  35. Duration                                 : 1 h 47 min
  36. Bit rate mode                            : Constant
  37. Bit rate                                 : 640 kb/s
  38. Channel(s)                               : 6 channels
  39. Channel layout                           : L R C LFE Ls Rs
  40. Sampling rate                            : 48.0 kHz
  41. Frame rate                               : 31.250 FPS (1536 SPF)
  42. Compression mode                         : Lossy
  43. Stream size                              : 494 MiB (9%)
  44. Language                                 : Japanese
  45. Service kind                             : Complete Main
  46. Default                                  : Yes
  47. Forced                                   : No
  48. Text #1
  49. ID                                       : 3
  50. Format                                   : PGS
  51. Muxing mode                              : zlib
  52. Codec ID                                 : S_HDMV/PGS
  53. Codec ID/Info                            : Picture based subtitle format used on BDs/HD-DVDs
  54. Duration                                 : 1 h 47 min
  55. Bit rate                                 : 22.2 kb/s
  56. Count of elements                        : 2864
  57. Stream size                              : 17.0 MiB (0%)
  58. Language                                 : Japanese
  59. Default                                  : Yes
  60. Forced                                   : No
  61. Text #2
  62. ID                                       : 4
  63. Format                                   : PGS
  64. Muxing mode                              : zlib
  65. Codec ID                                 : S_HDMV/PGS
  66. Codec ID/Info                            : Picture based subtitle format used on BDs/HD-DVDs
  67. Duration                                 : 1 h 46 min
  68. Bit rate                                 : 12.0 kb/s
  69. Count of elements                        : 2290
  70. Stream size                              : 9.16 MiB (0%)
  71. Language                                 : Chinese
  72. Default                                  : No
  73. Forced                                   : No
  74. Text #3
  75. ID                                       : 5
  76. Format                                   : PGS
  77. Muxing mode                              : zlib
  78. Codec ID                                 : S_HDMV/PGS
  79. Codec ID/Info                            : Picture based subtitle format used on BDs/HD-DVDs
  80. Duration                                 : 1 h 46 min
  81. Bit rate                                 : 9 691 b/s
  82. Count of elements                        : 2352
  83. Stream size                              : 7.40 MiB (0%)
  84. Language                                 : Chinese
  85. Default                                  : No
  86. Forced                                   : No
  87. Text #4
  88. ID                                       : 6
  89. Format                                   : PGS
  90. Muxing mode                              : zlib
  91. Codec ID                                 : S_HDMV/PGS
  92. Codec ID/Info                            : Picture based subtitle format used on BDs/HD-DVDs
  93. Duration                                 : 1 h 46 min
  94. Bit rate                                 : 12.5 kb/s
  95. Count of elements                        : 2358
  96. Stream size                              : 9.52 MiB (0%)
  97. Language                                 : Chinese
  98. Default                                  : No
  99. Forced                                   : No
  100. Text #5
  101. ID                                       : 7
  102. Format                                   : PGS
  103. Muxing mode                              : zlib
  104. Codec ID                                 : S_HDMV/PGS
  105. Codec ID/Info                            : Picture based subtitle format used on BDs/HD-DVDs
  106. Duration                                 : 1 h 46 min
  107. Bit rate                                 : 19.7 kb/s
  108. Count of elements                        : 2952
  109. Stream size                              : 15.0 MiB (0%)
  110. Language                                 : Chinese
  111. Default                                  : No
  112. Forced                                   : No
  113. Text #6
  114. ID                                       : 8
  115. Format                                   : PGS
  116. Muxing mode                              : zlib
  117. Codec ID                                 : S_HDMV/PGS
  118. Codec ID/Info                            : Picture based subtitle format used on BDs/HD-DVDs
  119. Duration                                 : 1 h 46 min
  120. Bit rate                                 : 20.1 kb/s
  121. Count of elements                        : 2952
  122. Stream size                              : 15.3 MiB (0%)
  123. Language                                 : Chinese
  124. Default                                  : No
  125. Forced                                   : No
  126. Text #7
  127. ID                                       : 9
  128. Format                                   : PGS
  129. Muxing mode                              : zlib
  130. Codec ID                                 : S_HDMV/PGS
  131. Codec ID/Info                            : Picture based subtitle format used on BDs/HD-DVDs
  132. Duration                                 : 1 h 46 min
  133. Bit rate                                 : 11.0 kb/s
  134. Count of elements                        : 2301
  135. Stream size                              : 8.43 MiB (0%)
  136. Language                                 : English
  137. Default                                  : No
  138. Forced                                   : No
  139. Menu
  140. 00:00:02.000                             : en:Chapter 01
  141. 00:05:34.166                             : en:Chapter 02
  142. 00:10:18.708                             : en:Chapter 03
  143. 00:19:41.750                             : en:Chapter 04
  144. 00:25:00.416                             : en:Chapter 05
  145. 00:29:52.041                             : en:Chapter 06
  146. 00:35:50.583                             : en:Chapter 07
  147. 00:41:09.541                             : en:Chapter 08
  148. 00:48:30.833                             : en:Chapter 09
  149. 00:53:26.750                             : en:Chapter 10
  150. 00:59:20.625                             : en:Chapter 11
  151. 01:03:58.166                             : en:Chapter 12
  152. 01:09:07.041                             : en:Chapter 13
  153. 01:14:32.166                             : en:Chapter 14
  154. 01:20:59.458                             : en:Chapter 15
  155. 01:27:54.916                             : en:Chapter 16
  156. 01:34:37.083                             : en:Chapter 17
  157. 01:42:41.833                             : en:Chapter 18
复制代码




TAGS 剧情

磁力链:
  • magnet:?xt=urn:btih:81327E30C9A905429C49426D36F3F826D179F420
上传的附件:
BT9527电影天堂 1、BT9527电影天堂提供的BT文件均来源于互联网抓取,只供网友学习交流、技术提升使用。
2、我们遵守BitTorrent点对点协议原则,任何版权问题请联系原资源发布商,我们不处理任何版权纠纷,谢谢!如有争议请联系邮箱:BT9527#hotmail.com(#换成@)
3、如果您发现某页面或地址有错误,请联系站长邮箱BT9527#hotmail.com(#换成@),我们会尽快处理。您的热心是对BT9527电影天堂最大的支持。
4、本站建议去正规影院观看电影以支持电影行业发展。
最新回复 (0)

你可以在 登录 or 注册 后,对此帖发表评论!

返回
发新帖