深夜食堂电影版[中英字幕].Midnight.Diner.2014.BluRay.1080p.x265.10bit-MiniHD 4.55GB

版主小s 29天前 267



◎译  名 深夜食堂电影版 / Midnight Diner
◎片  名 映画 深夜食堂
◎年  代 2014
◎产  地 日本
◎类  别 剧情
◎语  言 日语
◎上映日期 2014-11-10(金马影展) / 2015-01-31(日本)
◎IMDb链接 https://www.imdb.com/title/tt3958276/
◎豆瓣评分 7.9/10 (97758人评价)
◎豆瓣链接 https://movie.douban.com/subject/25958787/
◎片  长 119分钟
◎导  演 松冈锭司 Joji Matsuoka (id:1291293)
◎编  剧 真边克彦 Katsuhiko Manabe (id:1320379)
       小嶋健作 Kensaku Kojima (id:1345592)
       松冈锭司 Joji Matsuoka (id:1291293)
       安倍夜郎 Yar? Abe (id:1320380)
◎演  员 小林薰 Kaoru Kobayashi (id:1051523)
       高冈早纪 Saki Takaoka (id:1037678)
       柄本时生 Tokio Emoto (id:1313539)
       多部未华子 Mikako Tabe (id:1005885)
       余贵美子 Kimiko Yo (id:1048388)
       筒井道隆 Michitaka Tsutsui (id:1002489)
       菊池亚希子 Akiko Kikuchi (id:1318970)
       田中裕子 Y?ko Tanaka (id:1045811)
       小田切让 J? Odagiri (id:1007189)
       不破万作 Mansaku Fuwa (id:1323495)
       绫田俊树 Toshiki Ayata (id:1337259)
       松重丰 Yutaka Matsushige (id:1016968)
       光石研 Ken Mitsuishi (id:1029037)
       安藤玉惠 Tamae And? (id:1321863)
       须藤理彩 Risa Sud? (id:1026778)
       小林麻子 Asako Kobayashi (id:1000442)
       吉本菜穂子 Yoshimoto Noriko (id:1375103)
       中山佑一朗 Yuichiro Nakayama (id:1275643)
       山中崇 Takashi Yamanaka (id:1319356)
       宇野祥平 Sh?hei Uno (id:1340184)
       金子清文 Kiyobumi Kaneko (id:1375106)
       平田薰 Kaoru Hirata (id:1316249)
       筱原友希子 Yukiko Shinohara (id:1334748)
       涩川清彦 Kiyohiko Shibukawa (id:1011362)
       谷村美月 Mitsuki Tanimura (id:1020236)
       猪塚健太 Kenta Izuka (id:1349237)
       向井理 Osamu Mukai (id:1274400)

◎简  介
  夜幕笼罩下的东京霓虹闪烁,在城市某个不起眼的角落,充满温情的深夜食堂悄然开张。妖媚的川岛玉子(高冈早纪 饰)一脸颓唐,她的靠山不久前去世,却没给她留下分文遗产。在颓唐无助的时候,貌不惊人的上班族小初(柄本时生 饰)走入玉子的视野,他们的关系迅速拉近。乡下女孩栗山美知留(多部未华子 饰)独自来到东京,走投无路之际她在老板(小林薰 饰)这里吃了霸王餐,事后主动登门要求打工还钱,女孩因此找到了暂时的栖身地。3?11大地震让福岛灾民大石谦三(筒井道隆 饰)和来自东京的志愿者杉田明美(菊池亚希子 饰)相识。大石对后者展开狂热的追求,甚至尾随来至东京。                                    
                                平凡人的小故事,在深夜食堂内交替上演……

◎获奖情况 (共2项)
  第2届豆瓣电影年度榜单 (2015)
  评分最高的日本电影(提名)

  第6届豆瓣电影鑫像奖 (2016)
  鑫豆单元 最佳日本电影(提名)

  1. ##### MediaInfo ######
  2. General
  3. Unique ID                                : 221484422624083740080026516974121538153 (0xA6A05921FA373FD39C6F42862FC85269)
  4. Complete name                            : Midnight.Diner.2014.BluRay.1080p.x265.10bit-MiniHD.mkv
  5. Format                                   : Matroska
  6. Format version                           : Version 4
  7. File size                                : 4.55 GiB
  8. Duration                                 : 2 h 0 min
  9. Overall bit rate                         : 5 425 kb/s
  10. Encoded date                             : UTC 2017-06-02 07:41:20
  11. Writing application                      : mkvmerge v11.0.0 ('Alive') 64bit
  12. Writing library                          : libebml v1.3.4 + libmatroska v1.4.5
  13. Video
  14. ID                                       : 1
  15. Format                                   : HEVC
  16. Format/Info                              : High Efficiency Video Coding
  17. Codec ID                                 : V_MPEGH/ISO/HEVC
  18. Duration                                 : 2 h 0 min
  19. Bit rate                                 : 4 678 kb/s
  20. Width                                    : 1 920 pixels
  21. Height                                   : 1 038 pixels
  22. Display aspect ratio                     : 1.85:1
  23. Frame rate mode                          : Constant
  24. Frame rate                               : 24.000 FPS
  25. Bits/(Pixel*Frame)                       : 0.098
  26. Stream size                              : 3.92 GiB (86%)
  27. Default                                  : Yes
  28. Forced                                   : No
  29. Audio
  30. ID                                       : 2
  31. Format                                   : AC-3
  32. Format/Info                              : Audio Coding 3
  33. Commercial name                          : Dolby Digital
  34. Codec ID                                 : A_AC3
  35. Duration                                 : 2 h 0 min
  36. Bit rate mode                            : Constant
  37. Bit rate                                 : 640 kb/s
  38. Channel(s)                               : 6 channels
  39. Channel layout                           : L R C LFE Ls Rs
  40. Sampling rate                            : 48.0 kHz
  41. Frame rate                               : 31.250 FPS (1536 SPF)
  42. Compression mode                         : Lossy
  43. Stream size                              : 550 MiB (12%)
  44. Language                                 : Japanese
  45. Service kind                             : Complete Main
  46. Default                                  : Yes
  47. Forced                                   : No
  48. Text #1
  49. ID                                       : 3
  50. Format                                   : PGS
  51. Muxing mode                              : zlib
  52. Codec ID                                 : S_HDMV/PGS
  53. Codec ID/Info                            : Picture based subtitle format used on BDs/HD-DVDs
  54. Language                                 : Chinese
  55. Default                                  : Yes
  56. Forced                                   : No
  57. Text #2
  58. ID                                       : 4
  59. Format                                   : PGS
  60. Muxing mode                              : zlib
  61. Codec ID                                 : S_HDMV/PGS
  62. Codec ID/Info                            : Picture based subtitle format used on BDs/HD-DVDs
  63. Language                                 : English
  64. Default                                  : No
  65. Forced                                   : No
  66. Menu
  67. 00:00:00.000                             : en:Chapter 01
  68. 00:08:54.375                             : en:Chapter 02
  69. 00:14:47.500                             : en:Chapter 03
  70. 00:22:19.750                             : en:Chapter 04
  71. 00:29:24.708                             : en:Chapter 05
  72. 00:35:33.083                             : en:Chapter 06
  73. 00:42:58.083                             : en:Chapter 07
  74. 00:50:33.833                             : en:Chapter 08
  75. 00:59:36.750                             : en:Chapter 09
  76. 01:05:29.958                             : en:Chapter 10
  77. 01:10:32.666                             : en:Chapter 11
  78. 01:18:19.958                             : en:Chapter 12
  79. 01:24:39.208                             : en:Chapter 13
  80. 01:29:15.208                             : en:Chapter 14
  81. 01:38:23.750                             : en:Chapter 15
  82. 01:42:41.458                             : en:Chapter 16
  83. 01:46:12.666                             : en:Chapter 17
  84. 01:56:37.166                             : en:Chapter 18
复制代码




TAGS 剧情

磁力链:
  • magnet:?xt=urn:btih:3FFAB56CD5D2AEB1627462605C72A4AFF43E28E8
上传的附件:
BT9527电影天堂 1、BT9527电影天堂提供的BT文件均来源于互联网抓取,只供网友学习交流、技术提升使用。
2、我们遵守BitTorrent点对点协议原则,任何版权问题请联系原资源发布商,我们不处理任何版权纠纷,谢谢!如有争议请联系邮箱:BT9527#hotmail.com(#换成@)
3、如果您发现某页面或地址有错误,请联系站长邮箱BT9527#hotmail.com(#换成@),我们会尽快处理。您的热心是对BT9527电影天堂最大的支持。
4、本站建议去正规影院观看电影以支持电影行业发展。
最新回复 (0)

你可以在 登录 or 注册 后,对此帖发表评论!

返回
发新帖