浪人[国英多音轨/中英字幕].Ronin.1998.Remastered.BluRay.1080p.x265.10bit.2Audio-MiniHD 7.58GB

版主小s 23天前 152



◎译  名 浪人 / 冷血悍将 / 罗宁
◎片  名 Ronin
◎年  代 1998
◎产  地 英国 / 法国 / 美国
◎类  别 动作 / 惊悚 / 犯罪
◎语  言 英语 / 法语 / 俄语
◎上映日期 1998-09-25
◎IMDb链接 https://www.imdb.com/title/tt0122690/
◎豆瓣评分 7.6/10 (15869人评价)
◎豆瓣链接 https://movie.douban.com/subject/1295527/
◎片  长 122 分钟
◎导  演 约翰·弗兰克海默 John Frankenheimer (id:1007071)
◎编  剧 J·D·基克 J.D. Zeik (id:1037286)
       大卫·马梅 David Mamet (id:1036481)
◎演  员 罗伯特·德尼罗 Robert De Niro (id:1054445)
       让·雷诺 Jean Reno (id:1025182)
       娜塔莎·麦克艾霍恩 Natascha McElhone (id:1036358)
       斯特兰·斯卡斯加德 Stellan Skarsg?rd (id:1017918)
       肖恩·宾 Sean Bean (id:1002683)
       黛娜·高兹 Dyna Gauzy (id:1284624)
       Patricia Pierangeli Patricia Pierangeli (id:1365793)
       卡塔琳娜·薇特 Katarina Witt (id:1036860)
       迈克尔·朗斯代尔 Michael Lonsdale (id:1035664)
       乔纳森·普雷斯 Jonathan Pryce (id:1019055)
       Steve Suissa Steve Suissa (id:1298621)
       利昂内尔·维特朗 Lionel Vitrant (id:1353023)
       Elia Cmiral Elia Cmiral (id:1276586)
       罗伯特·弗赖斯 Robert Fraisse (id:1276549)
       凯茜·桑德里奇 Cathy Sandrich (id:1296638)
       Amanda Mackey Johnson Amanda Mackey Johnson (id:1290650)
       May Routh May Routh (id:1296214)
       Jane Milon Jane Milon (id:1292121)
       Thomas Duval Thomas Duval (id:1276481)
       朱莉娅·马拉瓦尔 Julia Maraval (id:1376783)

◎简  介
  一支由特种部队的退伍军人组成的神秘小组正在郊外的一间仓库接受雇主任务,他们个个身怀绝技,山姆(罗伯特·德尼罗 Robert De Niro 饰)是前中情局官员、文森特(让·雷诺 Jean Reno 饰)为前欧洲情报局官员、格雷戈(斯特兰·斯卡斯加德 Stellan Skarsg?rd 饰)则是德国电子专家,同时还有英国武器专家史宾斯(肖恩·宾 Sean Bean 饰)和司机拉里。小组受命要袭击一支全副武装的车队并劫下一只神秘的公文包。经过一系列激烈追逐和枪战,小组总算拿到了箱子,却不料格雷戈竟然背叛了组织,携公文包潜逃并试图将其兜售给俄罗斯。然而,在随后的追回箱子过程中,背叛似乎如诅咒般笼罩着小组,在一次次胆战心惊的追逐和辗转之下,成员们再也已无法分辨站在面前的是敌是友……

  1. ##### MediaInfo ######
  2. General
  3. Unique ID                                : 211311189866376914598407847353033598350 (0x9EF90E085752CA5AB03E4F741AFEA58E)
  4. Complete name                            : Ronin.1998.Remastered.BluRay.1080p.x265.10bit.2Audio-MiniHD.mkv
  5. Format                                   : Matroska
  6. Format version                           : Version 4
  7. File size                                : 7.58 GiB
  8. Duration                                 : 2 h 1 min
  9. Overall bit rate                         : 8 925 kb/s
  10. Encoded date                             : UTC 2017-08-22 04:14:36
  11. Writing application                      : mkvmerge v11.0.0 ('Alive') 64bit
  12. Writing library                          : libebml v1.3.4 + libmatroska v1.4.5
  13. Video
  14. ID                                       : 1
  15. Format                                   : HEVC
  16. Format/Info                              : High Efficiency Video Coding
  17. Codec ID                                 : V_MPEGH/ISO/HEVC
  18. Duration                                 : 2 h 1 min
  19. Bit rate                                 : 7 724 kb/s
  20. Width                                    : 1 920 pixels
  21. Height                                   : 818 pixels
  22. Display aspect ratio                     : 2.35:1
  23. Frame rate mode                          : Constant
  24. Frame rate                               : 23.976 (24000/1001/53354) FPS
  25. Bits/(Pixel*Frame)                       : 0.205
  26. Stream size                              : 6.56 GiB (87%)
  27. Default                                  : Yes
  28. Forced                                   : No
  29. Audio #1
  30. ID                                       : 2
  31. Format                                   : AC-3
  32. Format/Info                              : Audio Coding 3
  33. Commercial name                          : Dolby Digital
  34. Codec ID                                 : A_AC3
  35. Duration                                 : 2 h 1 min
  36. Bit rate mode                            : Constant
  37. Bit rate                                 : 640 kb/s
  38. Channel(s)                               : 6 channels
  39. Channel layout                           : L R C LFE Ls Rs
  40. Sampling rate                            : 48.0 kHz
  41. Frame rate                               : 31.250 FPS (1536 SPF)
  42. Compression mode                         : Lossy
  43. Stream size                              : 557 MiB (7%)
  44. Language                                 : English
  45. Service kind                             : Complete Main
  46. Default                                  : Yes
  47. Forced                                   : No
  48. Audio #2
  49. ID                                       : 3
  50. Format                                   : AC-3
  51. Format/Info                              : Audio Coding 3
  52. Commercial name                          : Dolby Digital
  53. Codec ID                                 : A_AC3
  54. Duration                                 : 2 h 1 min
  55. Bit rate mode                            : Constant
  56. Bit rate                                 : 448 kb/s
  57. Channel(s)                               : 6 channels
  58. Channel layout                           : L R C LFE Ls Rs
  59. Sampling rate                            : 48.0 kHz
  60. Frame rate                               : 31.250 FPS (1536 SPF)
  61. Compression mode                         : Lossy
  62. Stream size                              : 390 MiB (5%)
  63. Language                                 : Chinese
  64. Service kind                             : Complete Main
  65. Default                                  : No
  66. Forced                                   : No
  67. Text #1
  68. ID                                       : 4
  69. Format                                   : PGS
  70. Muxing mode                              : zlib
  71. Codec ID                                 : S_HDMV/PGS
  72. Codec ID/Info                            : Picture based subtitle format used on BDs/HD-DVDs
  73. Duration                                 : 1 h 54 min
  74. Bit rate                                 : 8 507 b/s
  75. Count of elements                        : 1962
  76. Stream size                              : 7.00 MiB (0%)
  77. Language                                 : English
  78. Default                                  : Yes
  79. Forced                                   : No
  80. Text #2
  81. ID                                       : 5
  82. Format                                   : PGS
  83. Muxing mode                              : zlib
  84. Codec ID                                 : S_HDMV/PGS
  85. Codec ID/Info                            : Picture based subtitle format used on BDs/HD-DVDs
  86. Duration                                 : 1 h 56 min
  87. Bit rate                                 : 25.3 kb/s
  88. Count of elements                        : 2839
  89. Stream size                              : 21.1 MiB (0%)
  90. Language                                 : Chinese
  91. Default                                  : No
  92. Forced                                   : No
  93. Text #3
  94. ID                                       : 6
  95. Format                                   : PGS
  96. Muxing mode                              : zlib
  97. Codec ID                                 : S_HDMV/PGS
  98. Codec ID/Info                            : Picture based subtitle format used on BDs/HD-DVDs
  99. Duration                                 : 1 h 56 min
  100. Bit rate                                 : 25.9 kb/s
  101. Count of elements                        : 2839
  102. Stream size                              : 21.6 MiB (0%)
  103. Language                                 : Chinese
  104. Default                                  : No
  105. Forced                                   : No
  106. Text #4
  107. ID                                       : 7
  108. Format                                   : PGS
  109. Muxing mode                              : zlib
  110. Codec ID                                 : S_HDMV/PGS
  111. Codec ID/Info                            : Picture based subtitle format used on BDs/HD-DVDs
  112. Duration                                 : 1 h 56 min
  113. Bit rate                                 : 19.4 kb/s
  114. Count of elements                        : 2839
  115. Stream size                              : 16.1 MiB (0%)
  116. Language                                 : Chinese
  117. Default                                  : No
  118. Forced                                   : No
  119. Text #5
  120. ID                                       : 8
  121. Format                                   : PGS
  122. Muxing mode                              : zlib
  123. Codec ID                                 : S_HDMV/PGS
  124. Codec ID/Info                            : Picture based subtitle format used on BDs/HD-DVDs
  125. Duration                                 : 1 h 56 min
  126. Bit rate                                 : 19.8 kb/s
  127. Count of elements                        : 2839
  128. Stream size                              : 16.5 MiB (0%)
  129. Language                                 : Chinese
  130. Default                                  : No
  131. Forced                                   : No
  132. Text #6
  133. ID                                       : 9
  134. Format                                   : PGS
  135. Muxing mode                              : zlib
  136. Codec ID                                 : S_HDMV/PGS
  137. Codec ID/Info                            : Picture based subtitle format used on BDs/HD-DVDs
  138. Duration                                 : 1 h 55 min
  139. Bit rate                                 : 7 922 b/s
  140. Count of elements                        : 1726
  141. Stream size                              : 6.57 MiB (0%)
  142. Language                                 : Chinese
  143. Default                                  : No
  144. Forced                                   : No
  145. Text #7
  146. ID                                       : 10
  147. Format                                   : PGS
  148. Muxing mode                              : zlib
  149. Codec ID                                 : S_HDMV/PGS
  150. Codec ID/Info                            : Picture based subtitle format used on BDs/HD-DVDs
  151. Duration                                 : 1 h 55 min
  152. Bit rate                                 : 8 246 b/s
  153. Count of elements                        : 1726
  154. Stream size                              : 6.84 MiB (0%)
  155. Language                                 : Chinese
  156. Default                                  : No
  157. Forced                                   : No
  158. Menu
  159. 00:00:00.000                             : en:Chapter 01
  160. 00:10:28.961                             : en:Chapter 02
  161. 00:17:22.082                             : en:Chapter 03
  162. 00:31:22.171                             : en:Chapter 04
  163. 00:41:19.351                             : en:Chapter 05
  164. 00:51:35.842                             : en:Chapter 06
  165. 01:01:21.344                             : en:Chapter 07
  166. 01:09:05.933                             : en:Chapter 08
  167. 01:25:49.227                             : en:Chapter 09
  168. 01:35:04.323                             : en:Chapter 10
  169. 01:39:40.683                             : en:Chapter 11
  170. 01:53:46.402                             : en:Chapter 12
复制代码




TAGS 动作 惊悚 犯罪 /

磁力链:
  • magnet:?xt=urn:btih:C1913613624CACD33AAB3EF52C7DE95A9B38A2A9
上传的附件:
BT9527电影天堂 1、BT9527电影天堂提供的BT文件均来源于互联网抓取,只供网友学习交流、技术提升使用。
2、我们遵守BitTorrent点对点协议原则,任何版权问题请联系原资源发布商,我们不处理任何版权纠纷,谢谢!如有争议请联系邮箱:BT9527#hotmail.com(#换成@)
3、如果您发现某页面或地址有错误,请联系站长邮箱BT9527#hotmail.com(#换成@),我们会尽快处理。您的热心是对BT9527电影天堂最大的支持。
4、本站建议去正规影院观看电影以支持电影行业发展。
最新回复 (0)

你可以在 登录 or 注册 后,对此帖发表评论!

返回
发新帖