济公[国语音轨/中英字幕].The.Mad.Monk.1993.BluRay.1080p.x265.10bit.2Audio-MiniHD 5.12GB

版主小s 3月前 326



◎译  名 济公 / 降龙罗汉与济颠 / The Mad Monk
◎片  名 濟公
◎年  代 1993
◎产  地 中国香港
◎类  别 喜剧 / 奇幻
◎语  言 粤语
◎上映日期 1993-07-29(中国香港)
◎IMDb链接 https://www.imdb.com/title/tt0106538/
◎豆瓣评分 7.5/10 (134352人评价)
◎豆瓣链接 https://movie.douban.com/subject/1400665/
◎片  长 89分钟
◎导  演 杜琪峰 Johnnie To (id:1160186)
       程小东 Siu-Tung Ching (id:1280664)
◎编  剧 邵丽琼 Sandy Shaw (id:1321540)
◎演  员 周星驰 Stephen Chow (id:1048026)
       张曼玉 Maggie Cheung (id:1274231)
       吴孟达 Man Tat Ng (id:1016771)
       黄秋生 Anthony Wong Chau-Sang (id:1050076)
       梅艳芳 Anita Mui (id:1047976)
       苑琼丹 King-Tan Yuen (id:1274445)
       卢海鹏 Hoi-Pang Lo (id:1038772)
       黄一飞 Yut Fei Wong (id:1301215)
       龙天生 Tin Sang Lung (id:1365223)
       黄新 Sun Wong (id:1342013)
       刘天赐 Tin-Chi Lau (id:1334280)
       胡立成 Licheng Hu (id:1331134)
       周树基 Kent Chow Shu-Kei (id:1411711)
       许思敏 Si Man Hui (id:1414674)
       雷达 Tat Lui (id:1361262)
       刘江 Kong Lau (id:1274572)
       陈欣健 Philip Chan (id:1007245)
       郑家生 Ka Sang Cheung (id:1280593)
       鲍起静 Hee Ching Paw (id:1274229)
       黄一山 Gabriel Wong (id:1315440)
       司马燕 Michelle Szema (id:1315845)
       陈惠敏 Wai-Man Chan (id:1012699)
       曾近荣 Kan-Wing Tsang (id:1329878)
       钱似莺 Tsi-Ang Chin (id:1211064)
       黄志强 Kirk Wong (id:1301193)
       潘恒生 Hang-Sang Poon (id:1294721)
       胡伟立 Wai Lap Wu (id:1275249)
       黄永恒 Wing-Hung Wong (id:1300411)
       黎沃 Lai Yu (id:1411067)
       麦兆辉 Alan Mak (id:1126158)
       林迪安 Dion Lam (id:1289289)
       马玉成 Yuk-Sing Ma (id:1290582)

◎简  介
  天上降龙罗汉(周星驰)与众仙打赌,称在凡间会令三名凡人于一定时限内为他人作出牺牲,否则他愿再受轮回之苦。伏虎罗汉化身和尚济公来到人间,边游戏人间边普渡为生的间隙,他选中被老天所罚的九世乞丐(黄秋生)、遭男人欺女人辱的妓女(张曼玉)、杀人如麻的大盗(黄志强)为实验品。                                    
                                凭 借鬼马机智巧妙安排一番后,济公与三人建立了良好的关系,而最终,九世乞丐与大盗被济公感化作出为他人牺牲之举,妓女更是一往情深爱上他,令他开始为是否自动放弃神仙身份留在凡间而烦恼。

  1. ##### MediaInfo ######
  2. General
  3. Unique ID                                : 201355458552859567979369728069880355220 (0x977BA694E21A2721A95D0835AF819994)
  4. Complete name                            : The.Mad.Monk.1993.BluRay.1080p.x265.10bit.2Audio-MiniHD.mkv
  5. Format                                   : Matroska
  6. Format version                           : Version 4
  7. File size                                : 5.12 GiB
  8. Duration                                 : 1 h 28 min
  9. Overall bit rate                         : 8 253 kb/s
  10. Encoded date                             : UTC 2017-03-28 02:03:07
  11. Writing application                      : mkvmerge v9.7.1 ('Pandemonium') 64bit
  12. Writing library                          : libebml v1.3.4 + libmatroska v1.4.5
  13. Video
  14. ID                                       : 1
  15. Format                                   : HEVC
  16. Format/Info                              : High Efficiency Video Coding
  17. Format profile                           : Main 10@L4@Main
  18. Codec ID                                 : V_MPEGH/ISO/HEVC
  19. Duration                                 : 1 h 28 min
  20. Bit rate                                 : 7 449 kb/s
  21. Width                                    : 1 920 pixels
  22. Height                                   : 1 036 pixels
  23. Display aspect ratio                     : 1.85:1
  24. Frame rate mode                          : Constant
  25. Frame rate                               : 24.000 FPS
  26. Color space                              : YUV
  27. Chroma subsampling                       : 4:2:0
  28. Bit depth                                : 10 bits
  29. Bits/(Pixel*Frame)                       : 0.156
  30. Stream size                              : 4.62 GiB (90%)
  31. Writing library                          : x265 2.3+24-a0eee4b41185:[Windows][GCC 6.3.0][64 bit] 10bit
  32. Encoding settings                        : cpuid=533541173503 / frame-threads=6 / numa-pools=36 / wpp / no-pmode / no-pme / no-psnr / no-ssim / log-level=2 / input-csp=1 / input-res=1920x1036 / interlace=0 / total-frames=127910 / level-idc=0 / high-tier=1 / uhd-bd=0 / ref=5 / no-allow-non-conformance / no-repeat-headers / annexb / no-aud / no-hrd / info / hash=0 / no-temporal-layers / no-open-gop / min-keyint=1 / keyint=360 / bframes=8 / b-adapt=2 / b-pyramid / bframe-bias=0 / rc-lookahead=60 / lookahead-slices=4 / NTMzNTQ=uuDQuD2mJt9fsCf / scenecut=40 / no-intra-refresh / ctu=32 / min-cu-size=8 / rect / no-amp / max-tu-size=16 / tu-inter-depth=2 / tu-intra-depth=2 / limit-tu=4 / rdoq-level=2 / dynamic-rd=0.00 / signhide / no-tskip / nr-intra=0 / nr-inter=0 / no-constrained-intra / no-strong-intra-smoothing / max-merge=3 / limit-refs=2 / limit-modes / me=3 / subme=5 / merange=25 / temporal-mvp / weightp / weightb / no-analyze-src-pics / deblock=-1:-1 / no-sao / no-sao-non-deblock / rd=4 / no-early-skip / rskip / no-fast-intra / no-tskip-fast / no-cu-lossless / b-intra / rdpenalty=1 / psy-rd=0.00 / psy-rdoq=5.00 / no-rd-refine / analysis-mode=0 / no-lossless / cbqpoffs=-2 / crqpoffs=-2 / rc=crf / crf=20.0 / qcomp=0.70 / qpstep=4 / stats-write=0 / stats-read=0 / ipratio=1.40 / pbratio=1.30 / aq-mode=1 / aq-strength=0.80 / cutree / zone-count=0 / no-strict-cbr / qg-size=16 / no-rc-grain / qpmax=69 / qpmin=0 / sar=0 / overscan=0 / videoformat=5 / range=0 / colorprim=1 / transfer=2 / colormatrix=2 / chromaloc=0 / display-window=0 / max-cll=0,0 / min-luma=0 / max-luma=1023 / log2-max-poc-lsb=8 / vui-timing-info / vui-hrd-info / slices=1 / opt-qp-pps / opt-ref-list-length-pps / no-multi-pass-opt-rps / scenecut-bias=0.05 / no-opt-cu-delta-qp / no-aq-motion / no-hdr / no-hdr-opt / refine-level=5
  33. Default                                  : Yes
  34. Forced                                   : No
  35. Color range                              : Limited
  36. Color primaries                          : BT.709
  37. Audio #1
  38. ID                                       : 2
  39. Format                                   : AC-3
  40. Format/Info                              : Audio Coding 3
  41. Commercial name                          : Dolby Digital
  42. Codec ID                                 : A_AC3
  43. Duration                                 : 1 h 28 min
  44. Bit rate mode                            : Constant
  45. Bit rate                                 : 320 kb/s
  46. Channel(s)                               : 2 channels
  47. Channel layout                           : L R
  48. Sampling rate                            : 48.0 kHz
  49. Frame rate                               : 31.250 FPS (1536 SPF)
  50. Compression mode                         : Lossy
  51. Stream size                              : 203 MiB (4%)
  52. Language                                 : Chinese
  53. Service kind                             : Complete Main
  54. Default                                  : Yes
  55. Forced                                   : No
  56. Audio #2
  57. ID                                       : 3
  58. Format                                   : AC-3
  59. Format/Info                              : Audio Coding 3
  60. Commercial name                          : Dolby Digital
  61. Codec ID                                 : A_AC3
  62. Duration                                 : 1 h 28 min
  63. Bit rate mode                            : Constant
  64. Bit rate                                 : 320 kb/s
  65. Channel(s)                               : 2 channels
  66. Channel layout                           : L R
  67. Sampling rate                            : 48.0 kHz
  68. Frame rate                               : 31.250 FPS (1536 SPF)
  69. Compression mode                         : Lossy
  70. Stream size                              : 203 MiB (4%)
  71. Language                                 : Chinese
  72. Service kind                             : Complete Main
  73. Default                                  : No
  74. Forced                                   : No
  75. Text #1
  76. ID                                       : 4
  77. Format                                   : PGS
  78. Muxing mode                              : zlib
  79. Codec ID                                 : S_HDMV/PGS
  80. Codec ID/Info                            : Picture based subtitle format used on BDs/HD-DVDs
  81. Language                                 : Chinese
  82. Default                                  : Yes
  83. Forced                                   : No
  84. Text #2
  85. ID                                       : 5
  86. Format                                   : PGS
  87. Muxing mode                              : zlib
  88. Codec ID                                 : S_HDMV/PGS
  89. Codec ID/Info                            : Picture based subtitle format used on BDs/HD-DVDs
  90. Language                                 : Chinese
  91. Default                                  : No
  92. Forced                                   : No
  93. Text #3
  94. ID                                       : 6
  95. Format                                   : PGS
  96. Muxing mode                              : zlib
  97. Codec ID                                 : S_HDMV/PGS
  98. Codec ID/Info                            : Picture based subtitle format used on BDs/HD-DVDs
  99. Language                                 : English
  100. Default                                  : No
  101. Forced                                   : No
  102. Menu
  103. 00:00:00.000                             : en:Chapter 01
  104. 00:07:27.291                             : en:Chapter 02
  105. 00:14:58.750                             : en:Chapter 03
  106. 00:22:17.000                             : en:Chapter 04
  107. 00:28:40.375                             : en:Chapter 05
  108. 00:35:48.958                             : en:Chapter 06
  109. 00:43:17.833                             : en:Chapter 07
  110. 00:50:15.791                             : en:Chapter 08
  111. 00:57:12.875                             : en:Chapter 09
  112. 01:06:59.250                             : en:Chapter 10
  113. 01:13:37.375                             : en:Chapter 11
  114. 01:21:24.791                             : en:Chapter 12
复制代码




TAGS 奇幻 喜剧 /

磁力链:
  • magnet:?xt=urn:btih:AF6E633BFEA8217C222CDB2F529115EC22C831FF
上传的附件:
BT9527电影天堂 1、BT9527电影天堂提供的BT文件均来源于互联网抓取,只供网友学习交流、技术提升使用。
2、我们遵守BitTorrent点对点协议原则,任何版权问题请联系原资源发布商,我们不处理任何版权纠纷,谢谢!如有争议请联系邮箱:BT9527#hotmail.com(#换成@)
3、如果您发现某页面或地址有错误,请联系站长邮箱BT9527#hotmail.com(#换成@),我们会尽快处理。您的热心是对BT9527电影天堂最大的支持。
4、本站建议去正规影院观看电影以支持电影行业发展。
最新回复 (0)

你可以在 登录 or 注册 后,对此帖发表评论!

返回