波西米亚狂想曲[国英多音轨/简繁英字幕].Bohemian.Rhapsody.2018.BluRay.2160p.x265.10bit.HDR.3Audio-MiniHD 16.17GB

版主小s 29天前 251



◎译  名 波西米亚狂想曲 / 波希米亚狂想曲:摇滚传说(港) / 波希米亚狂想曲(台)
◎片  名 Bohemian Rhapsody
◎年  代 2018
◎产  地 英国 / 美国
◎类  别 剧情 / 同性 / 音乐 / 传记
◎语  言 英语
◎上映日期 2019-03-22(中国大陆) / 2018-11-02(美国)
◎IMDb链接 https://www.imdb.com/title/tt1727824/
◎豆瓣评分 8.6/10 (543505人评价)
◎豆瓣链接 https://movie.douban.com/subject/5300054/
◎片  长 135分钟
◎导  演 布莱恩·辛格 Bryan Singer (id:1049586)
◎编  剧 安东尼·麦卡滕 Anthony McCarten (id:1344819)
       皮特·摩根 Peter Morgan (id:1000371)
       皇后乐队 Queen (id:1448193)
◎演  员 拉米·马雷克 Rami Malek (id:1044903)
       本·哈迪 Ben Hardy (id:1344763)
       约瑟夫·梅泽罗 Joseph Mazzello (id:1049517)
       格威利姆·李 Gwilym Lee (id:1268856)
       艾伦·里奇 Allen Leech (id:1045284)
       露西·宝通 Lucy Boynton (id:1310841)
       艾丹·吉伦 Aidan Gillen (id:1044961)
       汤姆·霍兰德 Tom Hollander (id:1049625)
       麦克·梅尔斯 Mike Myers (id:1017899)
       阿隆·麦克卡斯克 Aaron McCusker (id:1329521)
       梅内卡·达斯 Meneka Das (id:1171311)
       迪基·博 Dickie Beau (id:1406556)
       蒂姆· 普莱斯特 Tim Plester (id:1050406)
       杰克·罗思 Jack Roth (id:1337581)
       马克斯·班内特 Max Bennett (id:1336562)
       基兰·哈德卡斯托 Kieran Hardcastle (id:1391967)
       罗斯·格林 Ross Green (id:1367208)
       布鲁斯·麦克金伦 Bruce Mackinnon (id:1173535)
       米歇尔·邓肯 Michelle Duncan (id:1089672)
       马特·格林伍德 Matt Greenwood (id:1357520)
       罗茜·本杰明 Rosy Benjamin (id:1367758)
       约翰·奥特曼 John Ottman (id:1013701)
       詹姆斯·华莱士 James Wallace (id:1006353)
       文森特·阿德里安 Vincent Andriano (id:1355308)
       拉斯科·阿特金斯 Lasco Atkins (id:1346147)
       乔纳森·奇塔姆 Jonathan Cheetham (id:1035417)
       迈克尔·科布 Michael Cobb (id:1392814)
       耶稣·加洛 Jesús Gallo (id:1402984)
       亚当·兰伯特 Adam Lambert (id:1004676)
       豪尔赫·莱昂·马丁内斯 Jorge Leon Martinez (id:1340070)
       杰森· 莱恩斯 Jason Lines (id:1394068)
       伊斯雷尔·鲁兹 Israel Ruiz (id:1199375)
       普丽亚·布莱克本 Priya Blackburn (id:1409780)
       安德鲁·鲍尔曼 Andrew Bowerman (id:1410054)
       罗伊斯·克罗宁 Royce Cronin (id:1410053)
       埃斯·巴蒂 Ace Bhatti (id:1409778)
       菲利普·安德鲁 Philip Andrew (id:1409776)
       亚当·劳夫 Adam Rauf (id:1409777)
       德默特·墨菲 Dermot Murphy (id:1429387)
       罗伯特·德尼罗 Robert De Niro (id:1054445)
       德克斯特·弗莱彻 Dexter Fletcher (id:1007028)
       简·罗森塔尔 Jane Rosenthal (id:1050586)
       布赖恩·梅 Brian May (id:1055246)
       罗杰·泰勒 Roger Taylor (id:1055440)
       阿诺恩·米尔坎 Arnon Milchan (id:1037087)
       格拉汉姆·金 Graham King (id:1036790)
       吉姆·比奇 Jim Beach (id:1278139)
       布莱恩·辛格 Bryan Singer (id:1049586)
       皇后乐队 Queen (id:1448193)
       纽顿·托马斯·西格尔 Newton Thomas Sigel (id:1276570)
       约翰·奥特曼 John Ottman (id:1013701)
       戴维·辛德 David Hindle (id:1466527)
       朱利安·戴 Julian Day (id:1338280)
       保罗·马瑟 Paul Massey (id:1124315)
       妮娜·哈特斯通 Nina Hartstone (id:1409565)
       约翰·沃赫斯特 John Warhurst (id:1305983)
       约翰·卡萨利 John Casali (id:1409566)
       蒂姆·卡弗金 Tim Cavagin (id:1280309)
       阿曼·加洛 Aman Gahlot (id:1411055)
       英德里普·拉哈 Indreep Raha (id:1411062)

◎简  介
  本片是对皇后乐队、传奇主唱弗雷迪·莫库里以及他们音乐的致敬盛宴,这是一段充满爱、痛苦、接纳和音乐的旅程。                                    
                                弗雷迪·莫库里(拉米·马雷克 饰)曾是希思罗机场的一名普通搬运工,对音乐满腔热血的他,与布莱恩·梅(格威利姆·李 饰)、罗杰·泰勒(本·哈迪 饰)、约 翰·迪肯(约瑟夫·梅泽罗 饰)组成皇后乐队。这个殿堂级乐队的从无到有,从疏离到重聚,从低谷到巅峰,仿佛就是弗雷迪一生的缩影。在最后的日子里,弗雷迪做了生命中最重要的决定——在音乐史上最伟大的“拯救生命”大型摇滚乐演唱会上,将所有热血付诸于歌声。

◎获奖情况 (共40项)
  第91届奥斯卡金像奖 (2019)
  最佳影片(提名)
   └──格拉汉姆·金 (id:1036790)
  最佳男主角
   └──拉米·马雷克 (id:1044903)
  最佳剪辑
   └──约翰·奥特曼 (id:1013701)
  最佳混音
  最佳音效剪辑

  第76届金球奖 (2019)
  电影类 最佳剧情片
  电影类 剧情片最佳男主角
   └──拉米·马雷克 (id:1044903)

  第72届英国电影学院奖 (2019)
  电影奖 最佳英国影片(提名)
  电影奖 最佳男主角
   └──拉米·马雷克 (id:1044903)
  电影奖 最佳摄影(提名)
   └──纽顿·托马斯·西格尔 (id:1276570)
  电影奖 最佳剪辑(提名)
   └──约翰·奥特曼 (id:1013701)
  电影奖 最佳化妆/发型(提名)
  电影奖 最佳服装设计(提名)
   └──朱利安·戴 (id:1338280)
  电影奖 最佳音效

  第42届日本电影学院奖 (2019)
  最佳外语片

  第64届意大利大卫奖 (2019)
  最佳外语片(提名)

  第28届MTV电影奖 (2019)
  MTV电影奖 最佳表演(提名)
   └──拉米·马雷克 (id:1044903)

  第61届日本电影蓝丝带奖 (2019)
  最佳外国影片
  年度十佳海外影片

  第25届美国演员工会奖 (2019)
  电影奖 最佳男主角
   └──拉米·马雷克 (id:1044903)
  电影奖 最佳群戏(提名)

  第30届美国制片人工会奖 (2019)
  最佳电影制片人奖(提名)

  第69届美国剪辑工会奖 (2019)
  剧情片最佳剪辑
   └──约翰·奥特曼 (id:1013701)

  第23届美国艺术指导工会奖 (2019)
  电影奖 最佳历史电影艺术指导(提名)
   └──亚伦·海耶 (id:1042923)

  第21届美国服装设计工会奖 (2019)
  年代电影最佳服装设计(提名)
   └──朱利安·戴 (id:1338280)

  第6届美国化妆及发型设计工会奖 (2019)
  电影类最佳年代戏化妆(提名)
  电影类最佳年代戏发型设计(提名)

  第17届美国视觉效果协会奖 (2019)
  最佳电影辅助视觉效果(提名)

  第66届美国音效剪辑协会奖 (2019)
  金卷轴奖 最佳电影对白剪辑
  金卷轴奖 最佳音乐片音乐剪辑

  第55届美国声音效果协会奖 (2019)
  真人电影最佳音效

  第24届美国评论家选择电影奖 (2019)
  最佳男主角(提名)
   └──拉米·马雷克 (id:1044903)
  最佳服装设计(提名)
  最佳发型化妆(提名)

  第23届金卫星奖 (2019)
  电影部门 喜剧/音乐片最佳男主角
   └──拉米·马雷克 (id:1044903)

  第17届华盛顿影评人协会奖 (2018)
  最佳男主角(提名)
   └──拉米·马雷克 (id:1044903)

  第31届芝加哥影评人协会奖 (2018)
  最佳男主角(提名)
   └──拉米·马雷克 (id:1044903)

  第17届旧金山影评人协会奖 (2018)
  最佳男主角(提名)
   └──拉米·马雷克 (id:1044903)

  第6届豆瓣电影年度榜单 (2019)
  评分最高的外语电影(提名)

  第5届豆瓣电影年度榜单 (2018)
  年度电影原声

  1. ##### MediaInfo ######
  2. General
  3. Unique ID                                : 126320943164807843652626481129853229033 (0x5F0887592C7DF24B443EE1C405F317E9)
  4. Complete name                            : Bohemian.Rhapsody.2018.BluRay.2160p.x265.10bit.HDR.3Audio-MiniHD.mkv
  5. Format                                   : Matroska
  6. Format version                           : Version 4
  7. File size                                : 16.2 GiB
  8. Duration                                 : 2 h 14 min
  9. Overall bit rate mode                    : Variable
  10. Overall bit rate                         : 17.2 Mb/s
  11. Encoded date                             : UTC 2019-02-13 19:00:56
  12. Writing application                      : mkvmerge v27.0.0 ('Metropolis') 64-bit
  13. Writing library                          : libebml v1.3.6 + libmatroska v1.4.9
  14. Cover                                    : Yes
  15. Attachments                              : cover.jpg
  16. Video
  17. ID                                       : 1
  18. Format                                   : HEVC
  19. Format/Info                              : High Efficiency Video Coding
  20. Format profile                           : Main 10@L5.1@High
  21. HDR format                               : SMPTE ST 2086, HDR10 compatible
  22. Codec ID                                 : V_MPEGH/ISO/HEVC
  23. Duration                                 : 2 h 14 min
  24. Bit rate                                 : 11.3 Mb/s
  25. Width                                    : 3 840 pixels
  26. Height                                   : 1 604 pixels
  27. Display aspect ratio                     : 2.40:1
  28. Frame rate mode                          : Constant
  29. Frame rate                               : 23.976 (24000/1001/53354) FPS
  30. Color space                              : YUV
  31. Chroma subsampling                       : 4:2:0
  32. Bit depth                                : 10 bits
  33. Bits/(Pixel*Frame)                       : 0.077
  34. Stream size                              : 10.6 GiB (66%)
  35. Title                                    : mUHD-FRDS
  36. Writing library                          : x265 2.9+2-g3691e1f72+19:[Windows][GCC 7.1.0][64 bit] Yuuki 10bit
  37. Encoding settings                        : rc=crf / crf=19.0000 / qcomp=0.70 / qpstep=4 / vbv-maxrate=160000 / vbv-bufsize=160000 / vbv-init=0.9 / crf-max=0.0 / crf-min=0.0 / aq-mode=1 / aq-strength=0.90 / cbqpoffs=-3 / crqpoffs=-3 / ipratio=1.40 / pbratio=1.30 / psy-rd=2.00 / psy-rdoq=5.00 / deblock=-1:-1 / ref=5 / bframes=9 / b-adapt=2 / bframe-bias=0 / b-pyramid / b-intra / weightp / weightb / min-keyint=23 / max-keyint=300 / rc-lookahead=40 / gop-lookahead=0 / NTMzNTQ=uuDQuD2mJt9fsCf / scenecut=40 / radl=0 / max-cu-size=32 / min-cu-size=8 / me=3 / subme=4 / merange=25 / rdoq-level=2 / rd=4 / rdpenalty=1 / ----- / cutree / no-sao / no-rect / no-amp / no-open-gop / wpp / no-pmode / no-pme / no-psnr / no-ssim / nr-intra=0 / nr-inter=0 / no-constrained-intra / no-strong-intra-smoothing / max-tu-size=32 / tu-inter-depth=2 / tu-intra-depth=2 / limit-tu=4 / qg-size=32 / qpmax=69 / qpmin=0 / ----- / cpuid=533541111039 / frame-threads=5 / numa-pools=84,- / log-level=2 / input-csp=1 / input-res=3840x1604 / interlace=0 / level-idc=0 / high-tier=1 / uhd-bd=0 / no-allow-non-conformance / no-repeat-headers / no-aud / hrd / info / hash=0 / no-temporal-layers / lookahead-slices=4 / no-intra-refresh / dynamic-rd=0.00 / no-ssim-rd / signhide / no-tskip / max-merge=3 / limit-refs=2 / limit-modes / temporal-mvp / no-analyze-src-pics / no-sao-non-deblock / no-early-skip / no-rskip / no-fast-intra / no-tskip-fast / no-cu-lossless / no-splitrd-skip / no-rd-refine / no-lossless / zone-count=0 / no-strict-cbr / no-rc-grain / no-const-vbv / sar=0 / overscan=0 / videoformat=5 / range=0 / colorprim=9 / transfer=16 / colormatrix=9 / chromaloc=0 / display-window=0 / master-display=G(13250,34500)B(7500,3000)R(34000,16000)WP(15635,16450)L(10000000,50) / max-cll=0,0 / min-luma=0 / max-luma=1023 / log2-max-poc-lsb=8 / vui-timing-info / vui-hrd-info / slices=1 / no-opt-qp-pps / no-opt-ref-list-length-pps / no-multi-pass-opt-rps / scenecut-bias=0.05 / no-opt-cu-delta-qp / no-aq-motion / hdr / hdr-opt / no-dhdr10-opt / no-idr-recovery-sei / analysis-reuse-level=5 / scale-factor=0 / refine-intra=0 / refine-inter=0 / refine-mv=0 / no-limit-sao / ctu-info=0 / no-lowpass-dct / refine-mv-type=0 / copy-pic=1 / max-ausize-factor=1.0 / no-dynamic-refine / no-single-sei
  38. Default                                  : Yes
  39. Forced                                   : No
  40. Color range                              : Limited
  41. Color primaries                          : BT.2020
  42. Transfer characteristics                 : PQ
  43. Matrix coefficients                      : BT.2020 non-constant
  44. Mastering display color primaries        : Display P3
  45. Mastering display luminance              : min: 0.0050 cd/m2, max: 1000 cd/m2
  46. Audio #1
  47. ID                                       : 2
  48. Format                                   : MLP FBA 16-ch
  49. Format/Info                              : Meridian Lossless Packing FBA with 16-channel presentation
  50. Commercial name                          : Dolby TrueHD with Dolby Atmos
  51. Codec ID                                 : A_TRUEHD
  52. Duration                                 : 2 h 14 min
  53. Bit rate mode                            : Variable
  54. Bit rate                                 : 4 611 kb/s
  55. Maximum bit rate                         : 8 277 kb/s
  56. Channel(s)                               : 8 channels
  57. Channel layout                           : L R C LFE Ls Rs Lb Rb
  58. Sampling rate                            : 48.0 kHz
  59. Frame rate                               : 1 200.000 FPS (40 SPF)
  60. Compression mode                         : Lossless
  61. Delay relative to video                  : 27 ms
  62. Stream size                              : 4.34 GiB (27%)
  63. Title                                    : TrueHD+Atmos 7.1/48kHz/4611 kbps/24-bit
  64. Language                                 : English
  65. Default                                  : Yes
  66. Forced                                   : No
  67. Number of dynamic objects                : 13
  68. Bed channel count                        : 1 channel
  69. Bed channel configuration                : LFE
  70. Audio #2
  71. ID                                       : 3
  72. Format                                   : AC-3
  73. Format/Info                              : Audio Coding 3
  74. Commercial name                          : Dolby Digital
  75. Codec ID                                 : A_AC3
  76. Duration                                 : 2 h 14 min
  77. Bit rate mode                            : Constant
  78. Bit rate                                 : 640 kb/s
  79. Channel(s)                               : 6 channels
  80. Channel layout                           : L R C LFE Ls Rs
  81. Sampling rate                            : 48.0 kHz
  82. Frame rate                               : 31.250 FPS (1536 SPF)
  83. Compression mode                         : Lossy
  84. Delay relative to video                  : 27 ms
  85. Stream size                              : 616 MiB (4%)
  86. Title                                    : AC3  5.1/48 kHz/640 kbps
  87. Language                                 : English
  88. Service kind                             : Complete Main
  89. Default                                  : No
  90. Forced                                   : No
  91. Audio #3
  92. ID                                       : 4
  93. Format                                   : AC-3
  94. Format/Info                              : Audio Coding 3
  95. Commercial name                          : Dolby Digital
  96. Codec ID                                 : A_AC3
  97. Duration                                 : 2 h 14 min
  98. Bit rate mode                            : Constant
  99. Bit rate                                 : 448 kb/s
  100. Channel(s)                               : 6 channels
  101. Channel layout                           : L R C LFE Ls Rs
  102. Sampling rate                            : 48.0 kHz
  103. Frame rate                               : 31.250 FPS (1536 SPF)
  104. Compression mode                         : Lossy
  105. Stream size                              : 431 MiB (3%)
  106. Title                                    : AC3  5.1/48 kHz/448 kbps
  107. Language                                 : Chinese
  108. Service kind                             : Complete Main
  109. Default                                  : No
  110. Forced                                   : No
  111. Text #1
  112. ID                                       : 5
  113. Format                                   : PGS
  114. Muxing mode                              : zlib
  115. Codec ID                                 : S_HDMV/PGS
  116. Codec ID/Info                            : Picture based subtitle format used on BDs/HD-DVDs
  117. Duration                                 : 2 h 11 min
  118. Bit rate                                 : 44.0 kb/s
  119. Count of elements                        : 4536
  120. Stream size                              : 41.2 MiB (0%)
  121. Language                                 : English
  122. Default                                  : No
  123. Forced                                   : No
  124. Text #2
  125. ID                                       : 6
  126. Format                                   : PGS
  127. Muxing mode                              : zlib
  128. Codec ID                                 : S_HDMV/PGS
  129. Codec ID/Info                            : Picture based subtitle format used on BDs/HD-DVDs
  130. Duration                                 : 2 h 13 min
  131. Bit rate                                 : 27.2 kb/s
  132. Count of elements                        : 4000
  133. Stream size                              : 26.0 MiB (0%)
  134. Title                                    : 原盘繁体(HK)
  135. Language                                 : Chinese
  136. Default                                  : No
  137. Forced                                   : No
  138. Text #3
  139. ID                                       : 7
  140. Format                                   : PGS
  141. Muxing mode                              : zlib
  142. Codec ID                                 : S_HDMV/PGS
  143. Codec ID/Info                            : Picture based subtitle format used on BDs/HD-DVDs
  144. Duration                                 : 2 h 13 min
  145. Bit rate                                 : 27.5 kb/s
  146. Count of elements                        : 3996
  147. Stream size                              : 26.2 MiB (0%)
  148. Title                                    : 原盘繁体(TW)
  149. Language                                 : Chinese
  150. Default                                  : No
  151. Forced                                   : No
  152. Text #4
  153. ID                                       : 8
  154. Format                                   : PGS
  155. Muxing mode                              : zlib
  156. Codec ID                                 : S_HDMV/PGS
  157. Codec ID/Info                            : Picture based subtitle format used on BDs/HD-DVDs
  158. Duration                                 : 2 h 13 min
  159. Bit rate                                 : 64.5 kb/s
  160. Count of elements                        : 4160
  161. Stream size                              : 61.5 MiB (0%)
  162. Title                                    : 简体中文
  163. Language                                 : Chinese
  164. Default                                  : No
  165. Forced                                   : No
  166. Text #5
  167. ID                                       : 9
  168. Format                                   : PGS
  169. Muxing mode                              : zlib
  170. Codec ID                                 : S_HDMV/PGS
  171. Codec ID/Info                            : Picture based subtitle format used on BDs/HD-DVDs
  172. Duration                                 : 2 h 13 min
  173. Bit rate                                 : 86.5 kb/s
  174. Count of elements                        : 4160
  175. Stream size                              : 82.5 MiB (0%)
  176. Title                                    : 简英双语
  177. Language                                 : Chinese
  178. Default                                  : Yes
  179. Forced                                   : No


TAGS 剧情 同性 传记 音乐 /

磁力链:
  • magnet:?xt=urn:btih:85243E6C11FE80A2CA3FB06B2E2D189FE078FEE4
上传的附件:
BT9527电影天堂 1、BT9527电影天堂提供的BT文件均来源于互联网抓取,只供网友学习交流、技术提升使用。
2、我们遵守BitTorrent点对点协议原则,任何版权问题请联系原资源发布商,我们不处理任何版权纠纷,谢谢!如有争议请联系邮箱:BT9527#hotmail.com(#换成@)
3、如果您发现某页面或地址有错误,请联系站长邮箱BT9527#hotmail.com(#换成@),我们会尽快处理。您的热心是对BT9527电影天堂最大的支持。
4、本站建议去正规影院观看电影以支持电影行业发展。
最新回复 (0)

你可以在 登录 or 注册 后,对此帖发表评论!

返回
发新帖