法国贩毒网[国英多音轨/中英字幕].The.French.Connection.1971.BluRay.1080p.x265.10bit.3Audio-MiniHD 9.53GB

版主小s 4月前 260



◎译  名 法国贩毒网 / 密探霹雳火(港) / 霹雳神探(台) / 毒网惊魂
◎片  名 The French Connection
◎年  代 1971
◎产  地 美国
◎类  别 动作 / 惊悚 / 犯罪
◎语  言 英语 / 法语
◎上映日期 1971-10-09
◎IMDb链接 https://www.imdb.com/title/tt0067116/
◎豆瓣评分 7.7/10 (9983人评价)
◎豆瓣链接 https://movie.douban.com/subject/3013046/
◎片  长 104 分钟
◎导  演 威廉·弗莱德金 William Friedkin (id:1049822)
◎编  剧 欧内斯特·泰迪曼 Ernest Tidyman (id:1014704)
       罗宾·摩尔 Robin Moore (id:1042314)
       霍华德·霍克斯 Howard Hawks (id:1019118)
       爱德华·M·凯斯 Edward M. Keyes (id:1010399)
◎演  员 吉恩·哈克曼 Gene Hackman (id:1004589)
       费尔南多·雷伊 Fernando Rey (id:1050140)
       罗伊·谢德 Roy Scheider (id:1041132)
       托尼·洛·比安科 Tony Lo Bianco (id:1027556)
       马塞尔·博祖菲 Marcel Bozzuffi (id:1074226)
       Frédéric de Pasquale Frédéric de Pasquale (id:1137162)
       比尔?希克曼 Bill Hickman (id:1098749)
       Ann Rebbot Ann Rebbot (id:1343995)
       Harold Gary Harold Gary (id:1095983)
       埃迪·伊根 Eddie Egan (id:1014520)
       André Ernotte André Ernotte (id:1088738)
       桑尼格鲁索 Sonny Grosso (id:1285538)
       阿尔·法恩 Al Fann (id:1032882)
       弗兰克·阿多尼斯 Frank Adonis (id:1041310)
       罗伯特·达赫达赫 Robert Dahdah (id:1073044)
       萨丽娜·C·格兰特 Sarina C. Grant (id:1095141)
       乔·罗·格里普 Joe Lo Grippo (id:1096585)
       桃乐丝·麦卡锡 Doris McCarthy (id:1388388)
       查尔斯·麦格雷戈 Charles McGregor (id:1119428)
       Burt Richards Burt Richards (id:1141346)
       罗伯特·威尔 Robert Weil (id:1165430)
        Fayette Pinkney (id:1222822)
       Sheila Ferguson Sheila Ferguson (id:1082196)
       肯尼思·厄特 Kenneth Utt (id:1010139)
       菲利普·德安东尼 Philip D'Antoni (id:1005833)
       G. David Schine G. David Schine (id:1053155)
       Don Ellis Don Ellis (id:1024230)
       欧文·罗兹曼 Owen Roizman (id:1050597)
       杰拉德·B·格林伯格 Gerald B. Greenberg (id:1025574)
       Ben Kasazkow Ben Kasazkow (id:1010323)
       Joseph Fretwell III Joseph Fretwell III (id:1053966)
       欧文·布赫曼 Irving Buchman (id:1075916)
       Terence A. Donnelly Terence A. Donnelly (id:1002094)
       William C. Gerrity William C. Gerrity (id:1284745)

◎简  介
  腰缠万贯的法国富豪阿兰(费尔南多·雷依 Fernando Rey 饰)手上运作着全球最大的海洛因走私网,警方多番追踪仍无法将其落网,卧底警察也被残忍杀害。而在另一头的纽约城,侦探道尔(吉恩·哈克曼 Gene Hackman 饰)和鲁索(罗伊·施奈德 Roy Scheider 饰)还在酒吧中与当地贩毒分子交锋,浑然不知阿兰正在计划将一笔3200万美元的海洛因走私入美国。然而没过多久,在一次跟踪行动中,道尔和鲁索很快发现了可疑人物与贩毒网之间的关系,一场与贩毒团伙斗智斗勇的险恶持久战就此拉开。道尔和鲁索这对互相看不顺眼的搭档,究竟能想出多少计谋,躲过多少暗箭,最后又能否一举破获这起来自法国的大规模贩毒案呢?                                       
                                    本片根据罗宾·摩尔(Robin Moore)的真人真事作品改编,并获得第44届奥斯卡金像奖最佳电影、最佳导演、最佳男主角、最佳改编剧本、最佳剪辑奖。...

◎获奖情况 (共8项)
  第44届奥斯卡金像奖 (1972)
  最佳影片
   └──菲利普·德安东尼 (id:1005833)
  最佳导演
   └──威廉·弗莱德金 (id:1049822)
  最佳男主角
   └──吉恩·哈克曼 (id:1004589)
  最佳男配角(提名)
   └──罗伊·谢德 (id:1041132)
  最佳改编剧本
   └──欧内斯特·泰迪曼 (id:1014704)
  最佳摄影(提名)
   └──欧文·罗兹曼 (id:1050597)
  最佳剪辑
   └──杰拉德·B·格林伯格 (id:1025574)
  最佳音响(提名)

  1. ##### MediaInfo ######
  2. General
  3. Unique ID                                : 203296420347868491150470172065846436055 (0x98F17762F0E3A8769F2D1C9C258EA0D7)
  4. Complete name                            : The.French.Connection.1971.BluRay.1080p.x265.10bit.3Audio-MiniHD.mkv
  5. Format                                   : Matroska
  6. Format version                           : Version 4
  7. File size                                : 9.53 GiB
  8. Duration                                 : 1 h 43 min
  9. Overall bit rate                         : 13.1 Mb/s
  10. Encoded date                             : UTC 2017-09-07 09:23:12
  11. Writing application                      : mkvmerge v11.0.0 ('Alive') 64bit
  12. Writing library                          : libebml v1.3.4 + libmatroska v1.4.5
  13. Video
  14. ID                                       : 1
  15. Format                                   : HEVC
  16. Format/Info                              : High Efficiency Video Coding
  17. Codec ID                                 : V_MPEGH/ISO/HEVC
  18. Duration                                 : 1 h 43 min
  19. Bit rate                                 : 12.0 Mb/s
  20. Width                                    : 1 920 pixels
  21. Height                                   : 1 040 pixels
  22. Display aspect ratio                     : 1.85:1
  23. Frame rate mode                          : Constant
  24. Frame rate                               : 23.976 (24000/1001/53354) FPS
  25. Bits/(Pixel*Frame)                       : 0.252
  26. Stream size                              : 8.73 GiB (92%)
  27. Default                                  : Yes
  28. Forced                                   : No
  29. Audio #1
  30. ID                                       : 2
  31. Format                                   : AC-3
  32. Format/Info                              : Audio Coding 3
  33. Commercial name                          : Dolby Digital
  34. Codec ID                                 : A_AC3
  35. Duration                                 : 1 h 43 min
  36. Bit rate mode                            : Constant
  37. Bit rate                                 : 640 kb/s
  38. Channel(s)                               : 6 channels
  39. Channel layout                           : L R C LFE Ls Rs
  40. Sampling rate                            : 48.0 kHz
  41. Frame rate                               : 31.250 FPS (1536 SPF)
  42. Compression mode                         : Lossy
  43. Stream size                              : 475 MiB (5%)
  44. Language                                 : English
  45. Service kind                             : Complete Main
  46. Default                                  : Yes
  47. Forced                                   : No
  48. Audio #2
  49. ID                                       : 3
  50. Format                                   : AC-3
  51. Format/Info                              : Audio Coding 3
  52. Commercial name                          : Dolby Digital
  53. Codec ID                                 : A_AC3
  54. Duration                                 : 1 h 43 min
  55. Bit rate mode                            : Constant
  56. Bit rate                                 : 192 kb/s
  57. Channel(s)                               : 2 channels
  58. Channel layout                           : L R
  59. Sampling rate                            : 48.0 kHz
  60. Frame rate                               : 31.250 FPS (1536 SPF)
  61. Compression mode                         : Lossy
  62. Delay relative to video                  : 1 s 0 ms
  63. Stream size                              : 142 MiB (1%)
  64. Language                                 : Chinese
  65. Service kind                             : Complete Main
  66. Default                                  : No
  67. Forced                                   : No
  68. Audio #3
  69. ID                                       : 4
  70. Format                                   : AC-3
  71. Format/Info                              : Audio Coding 3
  72. Commercial name                          : Dolby Digital
  73. Codec ID                                 : A_AC3
  74. Duration                                 : 1 h 43 min
  75. Bit rate mode                            : Constant
  76. Bit rate                                 : 192 kb/s
  77. Channel(s)                               : 2 channels
  78. Channel layout                           : L R
  79. Sampling rate                            : 48.0 kHz
  80. Frame rate                               : 31.250 FPS (1536 SPF)
  81. Compression mode                         : Lossy
  82. Delay relative to video                  : 1 s 0 ms
  83. Stream size                              : 142 MiB (1%)
  84. Language                                 : Chinese
  85. Service kind                             : Complete Main
  86. Default                                  : No
  87. Forced                                   : No
  88. Text #1
  89. ID                                       : 5
  90. Format                                   : PGS
  91. Muxing mode                              : zlib
  92. Codec ID                                 : S_HDMV/PGS
  93. Codec ID/Info                            : Picture based subtitle format used on BDs/HD-DVDs
  94. Duration                                 : 1 h 41 min
  95. Bit rate                                 : 18.0 kb/s
  96. Count of elements                        : 1872
  97. Stream size                              : 13.0 MiB (0%)
  98. Language                                 : English
  99. Default                                  : Yes
  100. Forced                                   : No
  101. Text #2
  102. ID                                       : 6
  103. Format                                   : PGS
  104. Muxing mode                              : zlib
  105. Codec ID                                 : S_HDMV/PGS
  106. Codec ID/Info                            : Picture based subtitle format used on BDs/HD-DVDs
  107. Duration                                 : 1 h 42 min
  108. Bit rate                                 : 11.3 kb/s
  109. Count of elements                        : 1863
  110. Stream size                              : 8.30 MiB (0%)
  111. Language                                 : Chinese
  112. Default                                  : No
  113. Forced                                   : No
  114. Text #3
  115. ID                                       : 7
  116. Format                                   : PGS
  117. Muxing mode                              : zlib
  118. Codec ID                                 : S_HDMV/PGS
  119. Codec ID/Info                            : Picture based subtitle format used on BDs/HD-DVDs
  120. Duration                                 : 1 h 42 min
  121. Bit rate                                 : 11.9 kb/s
  122. Count of elements                        : 1863
  123. Stream size                              : 8.73 MiB (0%)
  124. Language                                 : Chinese
  125. Default                                  : No
  126. Forced                                   : No
  127. Text #4
  128. ID                                       : 8
  129. Format                                   : PGS
  130. Muxing mode                              : zlib
  131. Codec ID                                 : S_HDMV/PGS
  132. Codec ID/Info                            : Picture based subtitle format used on BDs/HD-DVDs
  133. Duration                                 : 1 h 42 min
  134. Bit rate                                 : 12.2 kb/s
  135. Count of elements                        : 1878
  136. Stream size                              : 8.90 MiB (0%)
  137. Language                                 : Chinese
  138. Default                                  : No
  139. Forced                                   : No
  140. Text #5
  141. ID                                       : 9
  142. Format                                   : PGS
  143. Muxing mode                              : zlib
  144. Codec ID                                 : S_HDMV/PGS
  145. Codec ID/Info                            : Picture based subtitle format used on BDs/HD-DVDs
  146. Duration                                 : 1 h 42 min
  147. Bit rate                                 : 12.9 kb/s
  148. Count of elements                        : 1878
  149. Stream size                              : 9.42 MiB (0%)
  150. Language                                 : Chinese
  151. Default                                  : No
  152. Forced                                   : No
  153. Text #6
  154. ID                                       : 10
  155. Format                                   : PGS
  156. Muxing mode                              : zlib
  157. Codec ID                                 : S_HDMV/PGS
  158. Codec ID/Info                            : Picture based subtitle format used on BDs/HD-DVDs
  159. Duration                                 : 1 h 42 min
  160. Bit rate                                 : 8 808 b/s
  161. Count of elements                        : 1878
  162. Stream size                              : 6.44 MiB (0%)
  163. Language                                 : Chinese
  164. Default                                  : No
  165. Forced                                   : No
  166. Menu
  167. 00:00:00.000                             : en:00:00:00.000
  168. 00:00:55.681                             : en:00:00:55.681
  169. 00:03:32.754                             : en:00:03:32.754
  170. 00:07:23.693                             : en:00:07:23.693
  171. 00:09:43.249                             : en:00:09:43.249
  172. 00:14:40.963                             : en:00:14:40.963
  173. 00:20:37.820                             : en:00:20:37.820
  174. 00:23:05.509                             : en:00:23:05.509
  175. 00:25:53.135                             : en:00:25:53.135
  176. 00:29:32.479                             : en:00:29:32.479
  177. 00:32:55.307                             : en:00:32:55.307
  178. 00:34:33.279                             : en:00:34:33.279
  179. 00:39:25.697                             : en:00:39:25.697
  180. 00:41:03.419                             : en:00:41:03.419
  181. 00:42:01.686                             : en:00:42:01.686
  182. 00:45:29.185                             : en:00:45:29.185
  183. 00:51:59.533                             : en:00:51:59.533
  184. 00:55:04.676                             : en:00:55:04.676
  185. 01:02:17.484                             : en:01:02:17.484
  186. 01:05:08.988                             : en:01:05:08.988
  187. 01:06:24.981                             : en:01:06:24.981
  188. 01:10:08.246                             : en:01:10:08.246
  189. 01:16:48.145                             : en:01:16:48.145
  190. 01:17:39.822                             : en:01:17:39.822
  191. 01:24:54.714                             : en:01:24:54.714
  192. 01:28:32.849                             : en:01:28:32.849
  193. 01:31:00.246                             : en:01:31:00.246
  194. 01:32:33.965                             : en:01:32:33.965
  195. 01:36:28.866                             : en:01:36:28.866
  196. 01:39:37.346                             : en:01:39:37.346
  197. 01:41:30.334                             : en:01:41:30.334
  198. 01:42:00.489                             : en:01:42:00.489
复制代码




TAGS 动作 惊悚 犯罪 /

磁力链:
  • magnet:?xt=urn:btih:122557B8D4AB908EB5C502E9DBC03B89CFE01D01
上传的附件:
BT9527电影天堂 1、BT9527电影天堂提供的BT文件均来源于互联网抓取,只供网友学习交流、技术提升使用。
2、我们遵守BitTorrent点对点协议原则,任何版权问题请联系原资源发布商,我们不处理任何版权纠纷,谢谢!如有争议请联系邮箱:BT9527#hotmail.com(#换成@)
3、如果您发现某页面或地址有错误,请联系站长邮箱BT9527#hotmail.com(#换成@),我们会尽快处理。您的热心是对BT9527电影天堂最大的支持。
4、本站建议去正规影院观看电影以支持电影行业发展。
最新回复 (0)

你可以在 登录 or 注册 后,对此帖发表评论!

返回
发新帖