沉默的羔羊[杜比视界版本][国英多音轨/简繁英字幕].The.Silence.of.the.Lambs.1991.UHD.2160p.x265.10bit.DoVi.5Audios-MiniHD 28.38GB

版主小s 25天前 218



◎译  名 沉默的羔羊
◎片  名 The Silence of the Lambs
◎年  代 1991
◎产  地 美国
◎类  别 剧情 / 惊悚 / 犯罪
◎语  言 英语
◎上映日期 1991-02-14(美国)
◎IMDb链接 https://www.imdb.com/title/tt0102926/
◎豆瓣评分 8.9/10 (800654人评价)
◎豆瓣链接 https://movie.douban.com/subject/1293544/
◎片  长 118分钟
◎导  演 乔纳森·戴米 Jonathan Demme (id:1032064)
◎编  剧 托马斯·哈里斯 Thomas Harris (id:1286121)
       泰德·塔里 Ted Tally (id:1000753)
◎演  员 朱迪·福斯特 Jodie Foster (id:1031222)
       安东尼·霍普金斯 Anthony Hopkins (id:1054434)
       斯科特·格伦 Scott Glenn (id:1007019)
       安东尼·希尔德 Anthony Heald (id:1049857)
       布鲁克·史密斯 Brooke Smith (id:1018020)
       卡斯·莱蒙斯 Kasi Lemmons (id:1032369)
       弗兰基·费森 Frankie Faison (id:1019102)
       泰德·拉文 Ted Levine (id:1017934)
       崔西·沃特 Tracey Walter (id:1164847)
       丹·巴特勒 Dan Butler (id:1036687)
       达拉 Darla (id:1372817)
       奥巴·巴巴图德 Obba Babatundé (id:1058076)
       黛安·贝克 Diane Baker (id:1032184)
       罗杰·科曼 Roger Corman (id:1002780)
       查尔斯·纳佩尔 Charles Napier (id:1002794)
       丹尼尔·冯·巴根 Daniel von Bargen (id:1165516)
       查克·阿贝 Chuck Aber (id:1446389)
       克里斯·艾塞克 Chris Isaak (id:1009490)
       丹尼·达斯特 Danny Darst (id:1281826)
       乔治·A·罗梅罗 George A. Romero (id:1007001)
       户田惠子 Keiko Toda (id:1051741)
       爱德华·萨克森 Edward Saxon (id:1296791)
       罗纳德·M·博兹曼 Ronald M. Bozman (id:1279124)
       霍华德·肖 Howard Shore (id:1027953)
       塔克·藤本 Tak Fujimoto (id:1009829)
       克雷格·麦凯 Craig McKay (id:1291636)
       凯伦·奥哈拉 Karen O'Hara (id:1293413)
       柯琳·阿特伍德 Colleen Atwood (id:1277560)
       Allen Weisinger Allen Weisinger (id:1300632)
       Neal Martz Neal Martz (id:1291165)
       卡尔·富勒顿 Carl Fullerton (id:1284349)
       艾兰·丹格里奥 Alan D'Angerio (id:1281682)
       Kyle McCarthy Kyle McCarthy (id:1291459)
       罗纳德·M·博兹曼 Ronald M. Bozman (id:1279124)
       克里斯托弗·纽曼 Christopher Newman (id:1129878)

◎简  介
  联调局学院学员 Clarice M. Starling(乔迪·福斯特 饰)受行为科学组的 Jack Crawford(斯科特·格伦 饰)指派,前往州立巴尔的摩法医院访问被监禁的精神科医生 Hannibal Lecter(安东尼·霍普金斯 饰)。Lecter要求转到条件较 好的联邦机构,远离常常折磨他的 Frederick Chilton 医生(安东尼·希尔德 饰),并愿意为此提供持续作案的连环杀手水牛比尔(泰德·莱文 饰)的心理分析……

◎获奖情况 (共11项)
  第64届奥斯卡金像奖 (1992)
  最佳影片
  最佳导演
   └──乔纳森·戴米 (id:1032064)
  最佳男主角
   └──安东尼·霍普金斯 (id:1054434)
  最佳女主角
   └──朱迪·福斯特 (id:1031222)
  最佳改编剧本
   └──泰德·塔里 (id:1000753)
  最佳剪辑(提名)
   └──克雷格·麦凯 (id:1291636)
  最佳音响(提名)

  第41届柏林国际电影节 (1991)
  金熊奖 最佳影片(提名)
   └──乔纳森·戴米 (id:1032064)
  银熊奖 最佳导演
   └──乔纳森·戴米 (id:1032064)

  第15届日本电影学院奖 (1992)
  最佳外语片(提名)

  第16届报知映画赏 (1991)
  海外作品奖
   └──乔纳森·戴米 (id:1032064)

  1. ##### MediaInfo ######
  2. General
  3. Unique ID                                : 296220664155533488992942735429232483145 (0xDEDA0654559EE137D9FE0C887A13DB49)
  4. Complete name                            : The.Silence.of.the.Lambs.1991.UHD.2160p.x265.10bit.DoVi.5Audios-MiniHD.mkv
  5. Format                                   : Matroska
  6. Format version                           : Version 4
  7. File size                                : 28.4 GiB
  8. Duration                                 : 1 h 58 min
  9. Overall bit rate mode                    : Variable
  10. Overall bit rate                         : 34.3 Mb/s
  11. Encoded date                             : UTC 2021-10-27 13:29:01
  12. Writing application                      : mkvmerge v62.0.0 ('Apollo') 64-bit
  13. Writing library                          : libebml v1.4.2 + libmatroska v1.6.4
  14. Video
  15. ID                                       : 1
  16. Format                                   : HEVC
  17. Format/Info                              : High Efficiency Video Coding
  18. Format profile                           : Main 10@L5.1@High
  19. HDR format                               : SMPTE ST 2086, HDR10 compatible
  20. Codec ID                                 : V_MPEGH/ISO/HEVC
  21. Duration                                 : 1 h 58 min
  22. Bit rate                                 : 29.2 Mb/s
  23. Width                                    : 3 840 pixels
  24. Height                                   : 2 160 pixels
  25. Display aspect ratio                     : 16:9
  26. Frame rate mode                          : Constant
  27. Frame rate                               : 23.976 (24000/1001/53354) FPS
  28. Color space                              : YUV
  29. Chroma subsampling                       : 4:2:0
  30. Bit depth                                : 10 bits
  31. Bits/(Pixel*Frame)                       : 0.147
  32. Stream size                              : 24.2 GiB (85%)
  33. Writing library                          : x265 3.3+3-g8f8e332f1+29:[Windows][#Erg`Djh#][@Yuuki] made by @Dongfangbubai
  34. Encoding settings                        : rc=crf / crf=20.0000 / qcomp=0.70 / qpstep=4 / stats-write=0 / stats-read=0 / vbv-maxrate=160000 / vbv-bufsize=160000 / vbv-init=0.9 / crf-max=0.0 / crf-min=0.0 / no-lossless / no-cu-lossless / aq-mode=3 / aq-strength=0.80 / cbqpoffs=-3 / crqpoffs=-3 / ipratio=1.40 / pbratio=1.30 / psy-rd=2.00 / psy-rdoq=3.00 / deblock=-1:-1 / ref=5 / limit-refs=0 / no-limit-modes / bframes=8 / b-adapt=2 / bframe-bias=0 / b-pyramid / b-intra / weightp / weightb / min-keyint=23 / max-keyint=240 / rc-lookahead=60 / gop-lookahead=0 / NTMzNTQ=uuDQuD2mJt9fsCf / scenecut=40 / hist-scenecut=0 / radl=0 / max-cu-size=32 / min-cu-size=8 / me=3 / subme=4 / merange=25 / rdoq-level=2 / rd=4 / rdpenalty=1 / dynamic-rd=0.00 / no-rd-refine / ----- / no-cutree / no-sao / no-rect / no-amp / no-open-gop / wpp / pmode / pme / no-psnr / no-ssim / nr-intra=0 / nr-inter=0 / no-constrained-intra / no-strong-intra-smoothing / max-tu-size=32 / tu-inter-depth=2 / tu-intra-depth=2 / limit-tu=0 / qg-size=32 / qpmax=69 / qpmin=0 / ----- / cpuid=533541176575 / frame-threads=6 / numa-pools=54,- / log-level=2 / input-csp=1 / input-res=3840x2160 / interlace=0 / level-idc=0 / high-tier=1 / uhd-bd=0 / no-allow-non-conformance / repeat-headers / aud / hrd / info / hash=0 / no-temporal-layers / lookahead-slices=0 / no-splice / no-intra-refresh / no-ssim-rd / signhide / no-tskip / max-merge=3 / temporal-mvp / no-frame-dup / no-hme / no-analyze-src-pics / no-sao-non-deblock / selective-sao=0 / no-early-skip / no-rskip / no-fast-intra / no-tskip-fast / no-splitrd-skip / zone-count=0 / no-strict-cbr / no-rc-grain / no-const-vbv / sar=0 / overscan=0 / videoformat=5 / range=0 / colorprim=9 / transfer=16 / colormatrix=9 / chromaloc=0 / display-window=0 / master-display=G(13250,34500)B(7500,3000)R(34000,16000)WP(15635,16450)L(40000000,50) / cll=5426,1007 / min-luma=0 / max-luma=1023 / log2-max-poc-lsb=8 / vui-timing-info / vui-hrd-info / slices=1 / no-opt-qp-pps / no-opt-ref-list-length-pps / no-multi-pass-opt-rps / scenecut-bias=0.05 / hist-threshold=0.01 / no-opt-cu-delta-qp / no-aq-motion / hdr10 / hdr10-opt / no-dhdr10-opt / no-idr-recovery-sei / analysis-reuse-level=0 / analysis-save-reuse-level=0 / analysis-load-reuse-level=0 / scale-factor=0 / refine-intra=0 / refine-inter=0 / refine-mv=1 / refine-ctu-distortion=0 / no-limit-sao / ctu-info=0 / no-lowpass-dct / refine-analysis-type=0 / copy-pic=1 / max-ausize-factor=1.0 / no-dynamic-refine / no-single-sei / no-hevc-aq / no-svt / no-field / qp-adaptation-range=1.00 / no-scenecut-aware-qpconformance-window-offsets / right=0 / bottom=0 / NTMzNTQ=
  35. Default                                  : Yes
  36. Forced                                   : No
  37. Color range                              : Limited
  38. Color primaries                          : BT.2020
  39. Transfer characteristics                 : PQ
  40. Matrix coefficients                      : BT.2020 non-constant
  41. Mastering display color primaries        : Display P3
  42. Mastering display luminance              : min: 0.0050 cd/m2, max: 4000 cd/m2
  43. Maximum Content Light Level              : 5426 cd/m2
  44. Maximum Frame-Average Light Level        : 1007 cd/m2
  45. Audio #1
  46. ID                                       : 2
  47. ID in the original source medium         : 4352 (0x1100)
  48. Format                                   : DTS XLL
  49. Format/Info                              : Digital Theater Systems
  50. Commercial name                          : DTS-HD Master Audio
  51. Codec ID                                 : A_DTS
  52. Duration                                 : 1 h 58 min
  53. Bit rate mode                            : Variable
  54. Bit rate                                 : 2 035 kb/s
  55. Channel(s)                               : 6 channels
  56. Channel layout                           : C L R Ls Rs LFE
  57. Sampling rate                            : 48.0 kHz
  58. Frame rate                               : 93.750 FPS (512 SPF)
  59. Bit depth                                : 24 bits
  60. Compression mode                         : Lossless
  61. Stream size                              : 1.69 GiB (6%)
  62. Title                                    : 英语
  63. Language                                 : English
  64. Default                                  : Yes
  65. Forced                                   : No
  66. Original source medium                   : Blu-ray
  67. Audio #2
  68. ID                                       : 3
  69. Format                                   : DTS XLL
  70. Format/Info                              : Digital Theater Systems
  71. Commercial name                          : DTS-HD Master Audio
  72. Codec ID                                 : A_DTS
  73. Duration                                 : 1 h 58 min
  74. Bit rate mode                            : Variable
  75. Bit rate                                 : 2 074 kb/s
  76. Channel(s)                               : 6 channels
  77. Channel layout                           : C L R Ls Rs LFE
  78. Sampling rate                            : 48.0 kHz
  79. Frame rate                               : 93.750 FPS (512 SPF)
  80. Bit depth                                : 16 bits
  81. Compression mode                         : Lossless
  82. Stream size                              : 1.72 GiB (6%)
  83. Title                                    : 东影上译国语
  84. Language                                 : Chinese
  85. Default                                  : No
  86. Forced                                   : No
  87. Audio #3
  88. ID                                       : 4
  89. Format                                   : AC-3
  90. Format/Info                              : Audio Coding 3
  91. Commercial name                          : Dolby Digital
  92. Codec ID                                 : A_AC3
  93. Duration                                 : 1 h 58 min
  94. Bit rate mode                            : Constant
  95. Bit rate                                 : 448 kb/s
  96. Channel(s)                               : 6 channels
  97. Channel layout                           : L R C LFE Ls Rs
  98. Sampling rate                            : 48.0 kHz
  99. Frame rate                               : 31.250 FPS (1536 SPF)
  100. Compression mode                         : Lossy
  101. Stream size                              : 380 MiB (1%)
  102. Title                                    : 上译内参国语
  103. Language                                 : Chinese
  104. Service kind                             : Complete Main
  105. Default                                  : No
  106. Forced                                   : No
  107. Audio #4
  108. ID                                       : 5
  109. Format                                   : AC-3
  110. Format/Info                              : Audio Coding 3
  111. Commercial name                          : Dolby Digital
  112. Codec ID                                 : A_AC3
  113. Duration                                 : 1 h 58 min
  114. Bit rate mode                            : Constant
  115. Bit rate                                 : 192 kb/s
  116. Channel(s)                               : 2 channels
  117. Channel layout                           : L R
  118. Sampling rate                            : 48.0 kHz
  119. Frame rate                               : 31.250 FPS (1536 SPF)
  120. Compression mode                         : Lossy
  121. Stream size                              : 163 MiB (1%)
  122. Title                                    : 八一内参国语
  123. Language                                 : Chinese
  124. Service kind                             : Complete Main
  125. Default                                  : No
  126. Forced                                   : No
  127. Audio #5
  128. ID                                       : 6
  129. Format                                   : AC-3
  130. Format/Info                              : Audio Coding 3
  131. Commercial name                          : Dolby Digital
  132. Codec ID                                 : A_AC3
  133. Duration                                 : 1 h 58 min
  134. Bit rate mode                            : Constant
  135. Bit rate                                 : 224 kb/s
  136. Channel(s)                               : 2 channels
  137. Channel layout                           : L R
  138. Sampling rate                            : 48.0 kHz
  139. Frame rate                               : 31.250 FPS (1536 SPF)
  140. Compression mode                         : Lossy
  141. Stream size                              : 190 MiB (1%)
  142. Title                                    : 央视国语
  143. Language                                 : Chinese
  144. Service kind                             : Complete Main
  145. Default                                  : No
  146. Forced                                   : No
  147. Text #1
  148. ID                                       : 7
  149. ID in the original source medium         : 4768 (0x12A0)
  150. Format                                   : PGS
  151. Muxing mode                              : zlib
  152. Codec ID                                 : S_HDMV/PGS
  153. Codec ID/Info                            : Picture based subtitle format used on BDs/HD-DVDs
  154. Duration                                 : 1 h 50 min
  155. Bit rate                                 : 29.2 kb/s
  156. Count of elements                        : 2528
  157. Stream size                              : 23.0 MiB (0%)
  158. Title                                    : 英文
  159. Language                                 : English
  160. Default                                  : Yes
  161. Forced                                   : No
  162. Original source medium                   : Blu-ray
  163. Text #2
  164. ID                                       : 8
  165. Format                                   : PGS
  166. Muxing mode                              : zlib
  167. Codec ID                                 : S_HDMV/PGS
  168. Codec ID/Info                            : Picture based subtitle format used on BDs/HD-DVDs
  169. Duration                                 : 1 h 57 min
  170. Bit rate                                 : 26.3 kb/s
  171. Count of elements                        : 3143
  172. Stream size                              : 22.1 MiB (0%)
  173. Title                                    : 东影简中
  174. Language                                 : Chinese
  175. Default                                  : No
  176. Forced                                   : No
  177. Text #3
  178. ID                                       : 9
  179. Format                                   : PGS
  180. Muxing mode                              : zlib
  181. Codec ID                                 : S_HDMV/PGS
  182. Codec ID/Info                            : Picture based subtitle format used on BDs/HD-DVDs
  183. Duration                                 : 1 h 58 min
  184. Bit rate                                 : 53.2 kb/s
  185. Count of elements                        : 3561
  186. Stream size                              : 45.1 MiB (0%)
  187. Title                                    : 简英双语
  188. Language                                 : Chinese
  189. Default                                  : No
  190. Forced                                   : No
  191. Text #4
  192. ID                                       : 10
  193. Format                                   : PGS
  194. Muxing mode                              : zlib
  195. Codec ID                                 : S_HDMV/PGS
  196. Codec ID/Info                            : Picture based subtitle format used on BDs/HD-DVDs
  197. Duration                                 : 1 h 52 min
  198. Bit rate                                 : 25.1 kb/s
  199. Count of elements                        : 2588
  200. Stream size                              : 20.2 MiB (0%)
  201. Title                                    : 原盘台繁
  202. Language                                 : Chinese
  203. Default                                  : No
  204. Forced                                   : No
  205. Text #5
  206. ID                                       : 11
  207. Format                                   : PGS
  208. Muxing mode                              : zlib
  209. Codec ID                                 : S_HDMV/PGS
  210. Codec ID/Info                            : Picture based subtitle format used on BDs/HD-DVDs
  211. Duration                                 : 1 h 52 min
  212. Bit rate                                 : 34.5 kb/s
  213. Count of elements                        : 2588
  214. Stream size                              : 27.8 MiB (0%)
  215. Title                                    : 原盘港繁
  216. Language                                 : Chinese
  217. Default                                  : No
  218. Forced                                   : No
  219. Menu
  220. 00:00:00.000                             : en:第 01 章
  221. 00:09:29.151                             : en:第 02 章
  222. 00:19:35.632                             : en:第 03 章
  223. 00:26:59.075                             : en:第 04 章
  224. 00:34:59.972                             : en:第 05 章
  225. 00:41:14.680                             : en:第 06 章
  226. 00:48:46.757                             : en:第 07 章
  227. 00:57:45.420                             : en:第 08 章
  228. 01:04:49.427                             : en:第 09 章
  229. 01:13:46.922                             : en:第 10 章
  230. 01:21:11.658                             : en:第 11 章
  231. 01:27:16.105                             : en:第 12 章
  232. 01:33:16.757                             : en:第 13 章
  233. 01:39:57.199                             : en:第 14 章
  234. 01:50:03.388                             : en:第 15 章
  235. 01:53:42.816                             : en:第 16 章
复制代码




TAGS 剧情 惊悚 犯罪 /

磁力链:
  • magnet:?xt=urn:btih:9D6C5CC5998319869AFFC7368FC39B066C639E83
上传的附件:
BT9527电影天堂 1、BT9527电影天堂提供的BT文件均来源于互联网抓取,只供网友学习交流、技术提升使用。
2、我们遵守BitTorrent点对点协议原则,任何版权问题请联系原资源发布商,我们不处理任何版权纠纷,谢谢!如有争议请联系邮箱:BT9527#hotmail.com(#换成@)
3、如果您发现某页面或地址有错误,请联系站长邮箱BT9527#hotmail.com(#换成@),我们会尽快处理。您的热心是对BT9527电影天堂最大的支持。
4、本站建议去正规影院观看电影以支持电影行业发展。
最新回复 (0)

你可以在 登录 or 注册 后,对此帖发表评论!

返回
发新帖