沉默[中英字幕].Silence.2016.BluRay.1080p.x265.10bit-MiniHD 6.21GB

版主小s 4月前 232



◎译  名 沉默 / 沈默(台) / 沈黙
◎片  名 Silence
◎年  代 2016
◎产  地 美国 / 英国 / 中国台湾 / 日本 / 墨西哥 / 意大利
◎类  别 剧情 / 历史
◎语  言 英语 / 日语 / 拉丁语 / 葡萄牙语 / 粤语 / 荷兰语
◎上映日期 2016-11-29(梵蒂冈) / 2017-01-13(美国)
◎IMDb链接 https://www.imdb.com/title/tt0490215/
◎豆瓣评分 7.7/10 (21654人评价)
◎豆瓣链接 https://movie.douban.com/subject/1884684/
◎片  长 161分钟
◎导  演 马丁·斯科塞斯 Martin Scorsese (id:1054425)
◎编  剧 马丁·斯科塞斯 Martin Scorsese (id:1054425)
       杰伊·考克斯 Jay Cocks (id:1014468)
       远藤周作 Shusaku Endo (id:1001850)
◎演  员 安德鲁·加菲尔德 Andrew Garfield (id:1022620)
       亚当·德赖弗 Adam Driver (id:1322327)
       连姆·尼森 Liam Neeson (id:1031220)
       浅野忠信 Tadanobu Asano (id:1036630)
       塞伦·希德 Ciarán Hinds (id:1004586)
       尾形一成 Issei Ogata (id:1033422)
       冢本晋也 Shinya Tsukamoto (id:1014223)
       笈田吉 Yoshi Oida (id:1293509)
       洼冢洋介 Y?suke Kubozuka (id:1040986)
       加濑亮 Ryo Kase (id:1191334)
       小松菜奈 Nana Komatsu (id:1335340)
       萨布 SABU (id:1041685)
       石凉 Liang Shi (id:1313009)
       片桐入 Hairi Katagiri (id:1015257)
       伊佐山博子 Hiroko Isayama (id:1026367)
       洞口依子 Yoriko Douguchi (id:1034012)
       藤原季节 Kisetsu Fujiwara (id:1348582)
       江藤汉 Kansai Eto (id:1079247)
       菅田俊 Shun Sugata (id:1008079)
       青木崇高 Munetaka Aoki (id:1318594)
       渡边哲 Tetsu Watanabe (id:1321530)
       中村贺津雄 Katsuo Nakamura (id:1048674)
       黑泽明日香 Asuka Kurosawa (id:1037865)
       本尼西奥·德尔·托罗 Benicio del Toro (id:1041005)
       盖尔·加西亚·贝纳尔 Gael García Bernal (id:1041009)
       真木仁 Jin Maki (id:1447770)
       马丁·斯科塞斯 Martin Scorsese (id:1054425)
       艾玛·特林格·科斯考夫 Emma Tillinger Koskoff (id:1337359)
       罗德里戈·普列托 Rodrigo Prieto (id:1276623)
       塞尔玛·斯昆梅克 Thelma Schoonmaker (id:1014210)
       黄文英 Wen-Ying Huang (id:1287054)
       巴勃罗·赫尔曼 Pablo Helman (id:1011117)

◎简  介
  《沉默》改编自著名日本作家远藤周作的同名小说。故事发生在德川幕府时代禁教令下长崎附近的小村子,一个葡萄牙耶稣会的教士偷渡到日本传教,并调查恩师因遭受「穴吊」酷刑而宣誓弃教一事,因为这事在当时欧洲人的眼中,不只是个人的挫折,同时也是整个欧洲信仰、思想的耻辱和失败。在传教与寻访的过程中,信仰与反叛、圣洁与背德、强权与卑微、受难与恐惧、坚贞与隐忍、挣扎与超脱……所有的两难情境都面临了,逼迫着他对基督的信仰进行更深层且更现实的思索,最终,他彷佛也走过一趟恩师的心路历程,拥有自己对信仰的诠释与实践。

◎获奖情况 (共9项)
  第89届奥斯卡金像奖 (2017)
  最佳摄影(提名)
   └──罗德里戈·普列托 (id:1276623)

  第31届美国摄影协会奖 (2017)
  电影长片最佳摄影(提名)
   └──罗德里戈·普列托 (id:1276623)

  第15届美国视觉效果协会奖 (2017)
  最佳电影辅助视觉效果(提名)

  第88届美国国家评论协会奖 (2016)
  最佳改编剧本
  年度佳片(提名)

  第17届美国电影学会奖 (2016)
  年度佳片

  第29届芝加哥影评人协会奖 (2016)
  最佳改编剧本(提名)
  最佳摄影(提名)
   └──罗德里戈·普列托 (id:1276623)

  第3届豆瓣电影年度榜单 (2016)
  2016-2017北美颁奖季热门佳片(提名)

  1. ##### MediaInfo ######
  2. General
  3. Unique ID                                : 197904710367784492337254086943918128070 (0x94E30F8F7DE180D6B97356DD1071FBC6)
  4. Complete name                            : Silence.2016.BluRay.1080p.x265.10bit-MiniHD.mkv
  5. Format                                   : Matroska
  6. Format version                           : Version 4
  7. File size                                : 6.21 GiB
  8. Duration                                 : 2 h 41 min
  9. Overall bit rate                         : 5 520 kb/s
  10. Encoded date                             : UTC 2017-03-23 08:31:38
  11. Writing application                      : mkvmerge v9.7.1 ('Pandemonium') 64bit
  12. Writing library                          : libebml v1.3.4 + libmatroska v1.4.5
  13. Video
  14. ID                                       : 1
  15. Format                                   : HEVC
  16. Format/Info                              : High Efficiency Video Coding
  17. Format profile                           : Main 10@L4@Main
  18. Codec ID                                 : V_MPEGH/ISO/HEVC
  19. Duration                                 : 2 h 41 min
  20. Bit rate                                 : 4 770 kb/s
  21. Width                                    : 1 920 pixels
  22. Height                                   : 804 pixels
  23. Display aspect ratio                     : 2.40:1
  24. Frame rate mode                          : Constant
  25. Frame rate                               : 23.976 (24000/1001/53354) FPS
  26. Color space                              : YUV
  27. Chroma subsampling                       : 4:2:0
  28. Bit depth                                : 10 bits
  29. Bits/(Pixel*Frame)                       : 0.129
  30. Stream size                              : 5.37 GiB (86%)
  31. Writing library                          : x265 2.3+7-c15f8bce9f4b:[Windows][GCC 6.3.0][64 bit] 10bit
  32. Encoding settings                        : cpuid=533541173503 / frame-threads=6 / numa-pools=36 / wpp / no-pmode / no-pme / no-psnr / no-ssim / log-level=2 / input-csp=1 / input-res=1920x804 / interlace=0 / total-frames=231836 / level-idc=0 / high-tier=1 / uhd-bd=0 / ref=5 / no-allow-non-conformance / no-repeat-headers / annexb / no-aud / no-hrd / info / hash=0 / no-temporal-layers / no-open-gop / min-keyint=1 / keyint=360 / bframes=8 / b-adapt=2 / b-pyramid / bframe-bias=0 / rc-lookahead=60 / lookahead-slices=4 / NTMzNTQ=uuDQuD2mJt9fsCf / scenecut=40 / no-intra-refresh / ctu=32 / min-cu-size=8 / rect / no-amp / max-tu-size=16 / tu-inter-depth=2 / tu-intra-depth=2 / limit-tu=0 / rdoq-level=2 / dynamic-rd=0.00 / signhide / no-tskip / nr-intra=0 / nr-inter=0 / no-constrained-intra / no-strong-intra-smoothing / max-merge=3 / limit-refs=2 / limit-modes / me=3 / subme=5 / merange=25 / temporal-mvp / weightp / weightb / no-analyze-src-pics / deblock=-1:-1 / no-sao / no-sao-non-deblock / rd=4 / no-early-skip / rskip / no-fast-intra / no-tskip-fast / no-cu-lossless / b-intra / rdpenalty=1 / psy-rd=0.00 / psy-rdoq=5.00 / no-rd-refine / analysis-mode=0 / no-lossless / cbqpoffs=-2 / crqpoffs=-2 / rc=crf / crf=19.0 / qcomp=0.70 / qpstep=4 / stats-write=0 / stats-read=0 / ipratio=1.40 / pbratio=1.30 / aq-mode=3 / aq-strength=0.80 / cutree / zone-count=0 / no-strict-cbr / qg-size=16 / no-rc-grain / qpmax=69 / qpmin=0 / sar=0 / overscan=0 / videoformat=5 / range=0 / colorprim=1 / transfer=2 / colormatrix=2 / chromaloc=0 / display-window=0 / max-cll=0,0 / min-luma=0 / max-luma=1023 / log2-max-poc-lsb=8 / vui-timing-info / vui-hrd-info / slices=1 / opt-qp-pps / opt-ref-list-length-pps / no-multi-pass-opt-rps / scenecut-bias=0.05 / no-opt-cu-delta-qp / no-aq-motion / no-hdr / no-hdr-opt / Capture-colorprim=3
  33. Default                                  : Yes
  34. Forced                                   : No
  35. Color range                              : Limited
  36. Color primaries                          : BT.709
  37. Audio
  38. ID                                       : 2
  39. Format                                   : AC-3
  40. Format/Info                              : Audio Coding 3
  41. Commercial name                          : Dolby Digital
  42. Codec ID                                 : A_AC3
  43. Duration                                 : 2 h 41 min
  44. Bit rate mode                            : Constant
  45. Bit rate                                 : 640 kb/s
  46. Channel(s)                               : 6 channels
  47. Channel layout                           : L R C LFE Ls Rs
  48. Sampling rate                            : 48.0 kHz
  49. Frame rate                               : 31.250 FPS (1536 SPF)
  50. Compression mode                         : Lossy
  51. Stream size                              : 738 MiB (12%)
  52. Language                                 : English
  53. Service kind                             : Complete Main
  54. Default                                  : Yes
  55. Forced                                   : No
  56. Text #1
  57. ID                                       : 3
  58. Format                                   : PGS
  59. Muxing mode                              : zlib
  60. Codec ID                                 : S_HDMV/PGS
  61. Codec ID/Info                            : Picture based subtitle format used on BDs/HD-DVDs
  62. Language                                 : English
  63. Default                                  : Yes
  64. Forced                                   : No
  65. Text #2
  66. ID                                       : 4
  67. Format                                   : PGS
  68. Muxing mode                              : zlib
  69. Codec ID                                 : S_HDMV/PGS
  70. Codec ID/Info                            : Picture based subtitle format used on BDs/HD-DVDs
  71. Language                                 : English
  72. Default                                  : No
  73. Forced                                   : No
  74. Text #3
  75. ID                                       : 5
  76. Format                                   : PGS
  77. Muxing mode                              : zlib
  78. Codec ID                                 : S_HDMV/PGS
  79. Codec ID/Info                            : Picture based subtitle format used on BDs/HD-DVDs
  80. Language                                 : Chinese
  81. Default                                  : No
  82. Forced                                   : No
  83. Text #4
  84. ID                                       : 6
  85. Format                                   : PGS
  86. Muxing mode                              : zlib
  87. Codec ID                                 : S_HDMV/PGS
  88. Codec ID/Info                            : Picture based subtitle format used on BDs/HD-DVDs
  89. Language                                 : Chinese
  90. Default                                  : No
  91. Forced                                   : No
  92. Menu
  93. 00:00:00.000                             : en:Chapter 01
  94. 00:12:59.904                             : en:Chapter 02
  95. 00:22:15.792                             : en:Chapter 03
  96. 00:33:21.708                             : en:Chapter 04
  97. 00:41:58.974                             : en:Chapter 05
  98. 00:51:14.029                             : en:Chapter 06
  99. 01:03:15.291                             : en:Chapter 07
  100. 01:10:57.127                             : en:Chapter 08
  101. 01:22:59.099                             : en:Chapter 09
  102. 01:30:19.914                             : en:Chapter 10
  103. 01:41:49.645                             : en:Chapter 11
  104. 01:47:57.012                             : en:Chapter 12
  105. 01:54:46.546                             : en:Chapter 13
  106. 02:10:37.162                             : en:Chapter 14
  107. 02:19:11.051                             : en:Chapter 15
  108. 02:34:22.378                             : en:Chapter 16
复制代码




TAGS 剧情 历史 /

磁力链:
  • magnet:?xt=urn:btih:8B78FF4B261FC214809CEF6818F893E53D42F9CB
上传的附件:
BT9527电影天堂 1、BT9527电影天堂提供的BT文件均来源于互联网抓取,只供网友学习交流、技术提升使用。
2、我们遵守BitTorrent点对点协议原则,任何版权问题请联系原资源发布商,我们不处理任何版权纠纷,谢谢!如有争议请联系邮箱:BT9527#hotmail.com(#换成@)
3、如果您发现某页面或地址有错误,请联系站长邮箱BT9527#hotmail.com(#换成@),我们会尽快处理。您的热心是对BT9527电影天堂最大的支持。
4、本站建议去正规影院观看电影以支持电影行业发展。
最新回复 (0)

你可以在 登录 or 注册 后,对此帖发表评论!

返回
发新帖