永远的三丁目的夕阳之1964[中英字幕].Always.Sunset.on.Third.Street.64.2012.BluRay.1080p.x265.10bit-MiniHD 5.10GB

版主小s 4月前 291



◎译  名 永远的三丁目的夕阳之1964 / 永远的三丁目的夕阳3
◎片  名 Always 三丁目の夕日'64
◎年  代 2012
◎产  地 日本
◎类  别 剧情
◎语  言 日语
◎上映日期 2012-01-21(日本)
◎IMDb链接 https://www.imdb.com/title/tt1823067/
◎豆瓣评分 8.3/10 (12728人评价)
◎豆瓣链接 https://movie.douban.com/subject/5967829/
◎片  长 142分钟
◎导  演 山崎贵 Takashi Yamazaki (id:1301398)
◎编  剧 古泽良太 Ryota Kosawa (id:1310750)
       山崎贵 Takashi Yamazaki (id:1301398)
◎演  员 吉冈秀隆 Hidetaka Yoshioka (id:1025610)
       堤真一 Shin'ichi Tsutsumi (id:1151079)
       小雪 Koyuki (id:1036610)
       堀北真希 Maki Horikita (id:1028076)
       三浦友和 Tomokazu Miura (id:1008191)
       药师丸博子 Hiroko Yakushimaru (id:1018783)
       须贺健太 Kenta Suga (id:1029983)
       小清水一挥 Kazuki Koshimizu (id:1275376)
       温水洋一 Y?ichi Nukumizu (id:1021281)
       染谷将太 Sh?ta Sometani (id:1315737)
       罇真佐子 Masako Motai (id:1274461)
       森山未来 Mirai Moriyama (id:1024080)
       大森南朋 Nao Omori (id:1005286)
       高畑淳子 Atsuko Takahata (id:1031429)
       米仓齐加年 Masakane Yonekura (id:1013413)
       蛭子能收 Yoshikazu Ebisu (id:1316199)
       正司照枝 Terue Shoji (id:1034973)
       泷正则 Pierre Taki (id:1002495)
       中川美树 Miki Nakagawa (id:1353734)
       饭田基祐 Kisuke Iida (id:1321962)
       浅利阳介 Asari Yousuke (id:1314563)
       佐藤直纪 Naoki Sato (id:1309717)

◎简  介
  1964年,战后的日本正处于经济高度增长期,东京奥运会召开在即,举国上下沉浸在沸腾的热情之中。我们所熟悉的夕日町三丁目,人们的生活也悄悄发生着改变。茶川龙之介(吉冈秀隆 饰)终于和温柔的广美(小雪 饰)结婚,养子淳之介(须贺健太 饰)已步入高中,正朝着东大努力,夫妻二人也即将迎来新的生命。可是龙之介一方面要面对新晋小说家的挑战,一方面又要重视和病危的父亲的关系。隔壁的铃木车行业扩大规模,并应入了新学徒。已成长为经验丰富老师傅的星野六子(堀北真希 饰)喜欢上凡天堂医院的菊池医生(森山未来 饰),但是一些不良传闻让小六苦恼不堪。                                    
                                随着奥运会的召开,美丽的三丁目迎来美好的一天……

  1. ##### MediaInfo ######
  2. General
  3. Unique ID                                : 188594560786018488405481458017693459414 (0x8DE1FDBF100BFC58A24D6801FB15E3D6)
  4. Complete name                            : Always.Sunset.on.Third.Street.64.2012.BluRay.1080p.x265.10bit-MiniHD.mkv
  5. Format                                   : Matroska
  6. Format version                           : Version 4
  7. File size                                : 5.10 GiB
  8. Duration                                 : 2 h 22 min
  9. Overall bit rate                         : 5 123 kb/s
  10. Encoded date                             : UTC 2017-09-11 04:05:54
  11. Writing application                      : mkvmerge v11.0.0 ('Alive') 64bit
  12. Writing library                          : libebml v1.3.4 + libmatroska v1.4.5
  13. Video
  14. ID                                       : 1
  15. Format                                   : HEVC
  16. Format/Info                              : High Efficiency Video Coding
  17. Codec ID                                 : V_MPEGH/ISO/HEVC
  18. Duration                                 : 2 h 22 min
  19. Bit rate                                 : 4 375 kb/s
  20. Width                                    : 1 920 pixels
  21. Height                                   : 800 pixels
  22. Display aspect ratio                     : 2.40:1
  23. Frame rate mode                          : Constant
  24. Frame rate                               : 23.976 (24000/1001/53354) FPS
  25. Bits/(Pixel*Frame)                       : 0.119
  26. Stream size                              : 4.36 GiB (85%)
  27. Default                                  : Yes
  28. Forced                                   : No
  29. Audio
  30. ID                                       : 2
  31. Format                                   : AC-3
  32. Format/Info                              : Audio Coding 3
  33. Commercial name                          : Dolby Digital
  34. Codec ID                                 : A_AC3
  35. Duration                                 : 2 h 22 min
  36. Bit rate mode                            : Constant
  37. Bit rate                                 : 640 kb/s
  38. Channel(s)                               : 6 channels
  39. Channel layout                           : L R C LFE Ls Rs
  40. Sampling rate                            : 48.0 kHz
  41. Frame rate                               : 31.250 FPS (1536 SPF)
  42. Compression mode                         : Lossy
  43. Stream size                              : 653 MiB (12%)
  44. Language                                 : Japanese
  45. Service kind                             : Complete Main
  46. Default                                  : Yes
  47. Forced                                   : No
  48. Text #1
  49. ID                                       : 3
  50. Format                                   : PGS
  51. Muxing mode                              : zlib
  52. Codec ID                                 : S_HDMV/PGS
  53. Codec ID/Info                            : Picture based subtitle format used on BDs/HD-DVDs
  54. Duration                                 : 2 h 15 min
  55. Bit rate                                 : 59.1 kb/s
  56. Count of elements                        : 9040
  57. Stream size                              : 57.1 MiB (1%)
  58. Language                                 : Japanese
  59. Default                                  : Yes
  60. Forced                                   : No
  61. Text #2
  62. ID                                       : 4
  63. Format                                   : PGS
  64. Muxing mode                              : zlib
  65. Codec ID                                 : S_HDMV/PGS
  66. Codec ID/Info                            : Picture based subtitle format used on BDs/HD-DVDs
  67. Duration                                 : 2 h 21 min
  68. Bit rate                                 : 46.3 kb/s
  69. Count of elements                        : 9167
  70. Stream size                              : 46.9 MiB (1%)
  71. Language                                 : English
  72. Default                                  : No
  73. Forced                                   : No
  74. Text #3
  75. ID                                       : 5
  76. Format                                   : VobSub
  77. Muxing mode                              : zlib
  78. Codec ID                                 : S_VOBSUB
  79. Codec ID/Info                            : Picture based subtitle format used on DVDs
  80. Duration                                 : 2 h 21 min
  81. Bit rate                                 : 4 377 b/s
  82. Count of elements                        : 1513
  83. Stream size                              : 4.43 MiB (0%)
  84. Language                                 : Chinese
  85. Default                                  : No
  86. Forced                                   : No
  87. Menu
  88. 00:00:00.000                             : en:Chapter 01
  89. 00:06:23.007                             : en:Chapter 02
  90. 00:08:46.525                             : en:Chapter 03
  91. 00:12:59.445                             : en:Chapter 04
  92. 00:16:00.834                             : en:Chapter 05
  93. 00:20:33.148                             : en:Chapter 06
  94. 00:23:02.464                             : en:Chapter 07
  95. 00:26:17.993                             : en:Chapter 08
  96. 00:29:22.802                             : en:Chapter 09
  97. 00:31:35.894                             : en:Chapter 10
  98. 00:36:16.507                             : en:Chapter 11
  99. 00:40:04.568                             : en:Chapter 12
  100. 00:43:03.789                             : en:Chapter 13
  101. 00:49:40.435                             : en:Chapter 14
  102. 00:54:32.811                             : en:Chapter 15
  103. 00:58:22.123                             : en:Chapter 16
  104. 01:07:31.047                             : en:Chapter 17
  105. 01:15:36.740                             : en:Chapter 18
  106. 01:18:41.633                             : en:Chapter 19
  107. 01:22:02.042                             : en:Chapter 20
  108. 01:29:09.886                             : en:Chapter 21
  109. 01:36:15.394                             : en:Chapter 22
  110. 01:42:47.578                             : en:Chapter 23
  111. 01:44:41.525                             : en:Chapter 24
  112. 01:50:36.504                             : en:Chapter 25
  113. 01:54:02.544                             : en:Chapter 26
  114. 01:55:20.496                             : en:Chapter 27
  115. 02:06:21.282                             : en:Chapter 28
  116. 02:08:00.381                             : en:Chapter 29
  117. 02:12:19.348                             : en:Chapter 30
  118. 02:16:18.170                             : en:Chapter 31
  119. 02:22:30.542                             : en:Chapter 32
复制代码




TAGS 剧情

磁力链:
  • magnet:?xt=urn:btih:610081EA84C04C6FCDD06D10A45419962D8459C9
上传的附件:
BT9527电影天堂 1、BT9527电影天堂提供的BT文件均来源于互联网抓取,只供网友学习交流、技术提升使用。
2、我们遵守BitTorrent点对点协议原则,任何版权问题请联系原资源发布商,我们不处理任何版权纠纷,谢谢!如有争议请联系邮箱:BT9527#hotmail.com(#换成@)
3、如果您发现某页面或地址有错误,请联系站长邮箱BT9527#hotmail.com(#换成@),我们会尽快处理。您的热心是对BT9527电影天堂最大的支持。
4、本站建议去正规影院观看电影以支持电影行业发展。
最新回复 (0)

你可以在 登录 or 注册 后,对此帖发表评论!

返回
发新帖