永远的三丁目的夕阳2[中英字幕].Always.Sunset.on.Third.Street.II.2007.BluRay.1080p.x265.10bit-MiniHD 6.15GB

版主小s 3月前 247



◎译  名 永远的三丁目的夕阳2 / 续·三丁目之黄昏(港) / ALWAYS再续幸福的三丁目(台) / 三丁目的夕阳续 / ALWAYS三丁目的夕阳 续集 / Always: Sunset on Third Street 2
◎片  名 ALWAYS 続?三丁目の夕日
◎年  代 2007
◎产  地 日本
◎类  别 剧情
◎语  言 日语
◎上映日期 2007-11-03(日本)
◎IMDb链接 https://www.imdb.com/title/tt0953981/
◎豆瓣评分 8.7/10 (16848人评价)
◎豆瓣链接 https://movie.douban.com/subject/1980825/
◎片  长 146 分钟
◎导  演 山崎贵 Takashi Yamazaki (id:1301398)
◎编  剧 山崎贵 Takashi Yamazaki (id:1301398)
       古泽良太 Ryota Kosawa (id:1310750)
◎演  员 吉冈秀隆 Hidetaka Yoshioka (id:1025610)
       堤真一 Shin'ichi Tsutsumi (id:1151079)
       小雪 Koyuki (id:1036610)
       堀北真希 Maki Horikita (id:1028076)
       三浦友和 Tomokazu Miura (id:1008191)
       药师丸博子 Hiroko Yakushimaru (id:1018783)
       小池彩梦 Ayame Koike (id:1322253)
       吹石一惠 Kazue Fukiishi (id:1028889)
       贯地谷栞 Shihori Kanjiya (id:1037758)
       平田满 Mitsuru Hirata (id:1043004)
       上川隆也 Takaya Kamikawa (id:1045991)
       手塚理美 Satomi Tezuka (id:1018696)
       饭田基祐 Kisuke Iida (id:1321962)
       浅利阳介 Asari Yousuke (id:1314563)
       福士诚治 Seiji Fukushi (id:1275370)
       小木茂光 Shigemitsu Ogi (id:1038695)
       温水洋一 Y?ichi Nukumizu (id:1021281)
       须贺健太 Kenta Suga (id:1029983)
       罇真佐子 Masako Motai (id:1274461)
       小日向文世 Fumiyo Kohinata (id:1009219)
       小清水一挥 Kazuki Koshimizu (id:1275376)
       神户浩 Hiroshi Kanbe (id:1018934)
       浅野和之 Kazuyuki Asano (id:1006871)
       佐藤直纪 Naoki Sato (id:1309717)
       上条安里 Anri Johjo (id:1308436)
       山崎贵 Takashi Yamazaki (id:1301398)

◎简  介
  20世纪50年代末,日本申奥成功,从东京到全国各地都沉浸在一片自豪与喜悦之中。而我们所熟悉的东京夕阳町三丁目,平淡却不乏温情的百姓故事仍在继续着。铃木车行迎来了亲戚家的孩子,美丽女孩美加(彩梦 饰)。这位养尊处优的大小姐自然无法适应夕阳町的庶民生活,令则文(堤真一 饰)、六子(堀北真希 饰)颇为挠头。另一边厢,茶川龙之介(吉冈秀隆 饰)与淳之介(须贺健太 饰)相守,但始终思念离开的广美(小雪 饰)。淳之介生父的到来让茶川甚感郁闷,为了证明自己拥有抚养淳之介的能力,他重整旗鼓,决定向再次芥川奖发起冲击。夕阳町的平常人们如同一家人,相互争吵、牵绊、鼓舞、扶持,迎来了最为辉煌的时代……                                    
                                本片荣获2008年日本电影学院奖最佳男主角奖(吉冈秀隆)。

◎获奖情况 (共15项)
  第31届日本电影学院奖 (2008)
  最佳影片(提名)
  最佳导演(提名)
   └──山崎贵 (id:1301398)
  最佳编剧(提名)
  最佳男主角
   └──吉冈秀隆 (id:1025610)
  最佳男配角(提名)
   └──堤真一 (id:1151079)
  最佳女配角(提名)
  最佳配乐(提名)
   └──佐藤直纪 (id:1309717)
  最佳摄影(提名)
   └──柴崎幸三 (id:1297452)
  最佳美术指导(提名)
   └──上条安里 (id:1308436)
  最佳照明(提名)
   └──水野研一 (id:1304049)
  最佳录音
   └──鹤巻仁 (id:1306157)
  最佳剪辑(提名)
   └──宫岛龙治 (id:1292254)

  第2届亚洲电影大奖 (2008)
  最佳男配角(提名)
   └──堤真一 (id:1151079)
  最佳女配角(提名)
   └──药师丸博子 (id:1018783)
  最佳视觉效果(提名)
   └──山崎贵 (id:1301398)

  1. ##### MediaInfo ######
  2. General
  3. Unique ID                                : 179616871133861124616153446819409405608 (0x8720F378E3D57AC6A95B8E4F1DEFA6A8)
  4. Complete name                            : Always.Sunset.on.Third.Street.II.2007.BluRay.1080p.x265.10bit-MiniHD.mkv
  5. Format                                   : Matroska
  6. Format version                           : Version 4
  7. File size                                : 6.15 GiB
  8. Duration                                 : 2 h 26 min
  9. Overall bit rate                         : 5 995 kb/s
  10. Encoded date                             : UTC 2017-09-11 03:49:14
  11. Writing application                      : mkvmerge v11.0.0 ('Alive') 64bit
  12. Writing library                          : libebml v1.3.4 + libmatroska v1.4.5
  13. Video
  14. ID                                       : 1
  15. Format                                   : HEVC
  16. Format/Info                              : High Efficiency Video Coding
  17. Codec ID                                 : V_MPEGH/ISO/HEVC
  18. Duration                                 : 2 h 26 min
  19. Bit rate                                 : 5 239 kb/s
  20. Width                                    : 1 920 pixels
  21. Height                                   : 800 pixels
  22. Display aspect ratio                     : 2.40:1
  23. Frame rate mode                          : Constant
  24. Frame rate                               : 23.976 (24000/1001/53354) FPS
  25. Bits/(Pixel*Frame)                       : 0.142
  26. Stream size                              : 5.37 GiB (87%)
  27. Default                                  : Yes
  28. Forced                                   : No
  29. Audio
  30. ID                                       : 2
  31. Format                                   : AC-3
  32. Format/Info                              : Audio Coding 3
  33. Commercial name                          : Dolby Digital
  34. Codec ID                                 : A_AC3
  35. Duration                                 : 2 h 26 min
  36. Bit rate mode                            : Constant
  37. Bit rate                                 : 640 kb/s
  38. Channel(s)                               : 6 channels
  39. Channel layout                           : L R C LFE Ls Rs
  40. Sampling rate                            : 48.0 kHz
  41. Frame rate                               : 31.250 FPS (1536 SPF)
  42. Compression mode                         : Lossy
  43. Stream size                              : 672 MiB (11%)
  44. Language                                 : Japanese
  45. Service kind                             : Complete Main
  46. Default                                  : Yes
  47. Forced                                   : No
  48. Text #1
  49. ID                                       : 3
  50. Format                                   : PGS
  51. Muxing mode                              : zlib
  52. Codec ID                                 : S_HDMV/PGS
  53. Codec ID/Info                            : Picture based subtitle format used on BDs/HD-DVDs
  54. Duration                                 : 2 h 18 min
  55. Bit rate                                 : 52.1 kb/s
  56. Count of elements                        : 8772
  57. Stream size                              : 51.8 MiB (1%)
  58. Language                                 : Japanese
  59. Default                                  : Yes
  60. Forced                                   : No
  61. Text #2
  62. ID                                       : 4
  63. Format                                   : PGS
  64. Muxing mode                              : zlib
  65. Codec ID                                 : S_HDMV/PGS
  66. Codec ID/Info                            : Picture based subtitle format used on BDs/HD-DVDs
  67. Duration                                 : 2 h 25 min
  68. Bit rate                                 : 43.1 kb/s
  69. Count of elements                        : 8844
  70. Stream size                              : 44.8 MiB (1%)
  71. Language                                 : English
  72. Default                                  : No
  73. Forced                                   : No
  74. Text #3
  75. ID                                       : 5
  76. Format                                   : PGS
  77. Muxing mode                              : zlib
  78. Codec ID                                 : S_HDMV/PGS
  79. Codec ID/Info                            : Picture based subtitle format used on BDs/HD-DVDs
  80. Duration                                 : 2 h 24 min
  81. Bit rate                                 : 10.8 kb/s
  82. Count of elements                        : 3080
  83. Stream size                              : 11.2 MiB (0%)
  84. Language                                 : Chinese
  85. Default                                  : No
  86. Forced                                   : No
  87. Text #4
  88. ID                                       : 6
  89. Format                                   : PGS
  90. Muxing mode                              : zlib
  91. Codec ID                                 : S_HDMV/PGS
  92. Codec ID/Info                            : Picture based subtitle format used on BDs/HD-DVDs
  93. Duration                                 : 2 h 24 min
  94. Bit rate                                 : 11.0 kb/s
  95. Count of elements                        : 3080
  96. Stream size                              : 11.4 MiB (0%)
  97. Language                                 : Chinese
  98. Default                                  : No
  99. Forced                                   : No
  100. Menu
  101. 00:00:00.000                             : en:Chapter 01
  102. 00:05:34.000                             : en:Chapter 02
  103. 00:08:49.278                             : en:Chapter 03
  104. 00:14:18.190                             : en:Chapter 04
  105. 00:15:24.757                             : en:Chapter 05
  106. 00:21:31.540                             : en:Chapter 06
  107. 00:23:15.185                             : en:Chapter 07
  108. 00:25:18.433                             : en:Chapter 08
  109. 00:26:42.517                             : en:Chapter 09
  110. 00:28:47.600                             : en:Chapter 10
  111. 00:33:32.051                             : en:Chapter 11
  112. 00:35:03.100                             : en:Chapter 12
  113. 00:36:03.369                             : en:Chapter 13
  114. 00:37:47.932                             : en:Chapter 14
  115. 00:39:47.343                             : en:Chapter 15
  116. 00:41:42.666                             : en:Chapter 16
  117. 00:45:24.304                             : en:Chapter 17
  118. 00:49:31.093                             : en:Chapter 18
  119. 00:58:19.829                             : en:Chapter 19
  120. 01:03:45.988                             : en:Chapter 20
  121. 01:09:11.188                             : en:Chapter 21
  122. 01:17:39.655                             : en:Chapter 22
  123. 01:22:43.917                             : en:Chapter 23
  124. 01:26:28.057                             : en:Chapter 24
  125. 01:31:39.076                             : en:Chapter 25
  126. 01:34:39.256                             : en:Chapter 26
  127. 01:39:35.886                             : en:Chapter 27
  128. 01:43:05.637                             : en:Chapter 28
  129. 01:47:37.242                             : en:Chapter 29
  130. 01:54:13.429                             : en:Chapter 30
  131. 02:01:24.151                             : en:Chapter 31
  132. 02:10:27.653                             : en:Chapter 32
  133. 02:12:04.291                             : en:Chapter 33
  134. 02:16:53.955                             : en:Chapter 34
  135. 02:20:45.395                             : en:Chapter 35
  136. 02:26:42.835                             : en:Chapter 36
复制代码




TAGS 剧情

磁力链:
  • magnet:?xt=urn:btih:33F47838990725F5173AF9DC4FD761A41F5EC8E9
上传的附件:
BT9527电影天堂 1、BT9527电影天堂提供的BT文件均来源于互联网抓取,只供网友学习交流、技术提升使用。
2、我们遵守BitTorrent点对点协议原则,任何版权问题请联系原资源发布商,我们不处理任何版权纠纷,谢谢!如有争议请联系邮箱:BT9527#hotmail.com(#换成@)
3、如果您发现某页面或地址有错误,请联系站长邮箱BT9527#hotmail.com(#换成@),我们会尽快处理。您的热心是对BT9527电影天堂最大的支持。
4、本站建议去正规影院观看电影以支持电影行业发展。
最新回复 (0)

你可以在 登录 or 注册 后,对此帖发表评论!

返回