比利·林恩的中场战事[简繁英字幕].Billy.Lynn's.Long.Halftime.Walk.2016.BluRay.1080p.x265.10bit.HDR10.2Audio-MiniHD 8.27GB

版主小s 23天前 83



◎译  名 比利·林恩的中场战事 / 半场无战事 / 比利·林恩漫长的中场休息 / 比利·林漫长的中场行走 / 中场休息
◎片  名 Billy Lynn's Long Halftime Walk
◎年  代 2016
◎产  地 美国 / 英国 / 中国大陆
◎类  别 剧情 / 战争
◎语  言 英语
◎上映日期 2016-11-11(中国大陆) / 2016-10-14(纽约电影节) / 2016-11-18(美国)
◎IMDb链接 https://www.imdb.com/title/tt2513074/
◎豆瓣评分 8.3/10 (367813人评价)
◎豆瓣链接 https://movie.douban.com/subject/25983044/
◎片  长 113分钟
◎导  演 李安 Ang Lee (id:1054421)
◎编  剧 让-克里斯托弗·卡斯特里 Jean-Christophe Castelli (id:1363186)
       本·方丹 Ben Fountain (id:1357807)
◎演  员 乔·阿尔文 Joe Alwyn (id:1348117)
       加内特·赫德兰 Garrett Hedlund (id:1047958)
       克里斯汀·斯图尔特 Kristen Stewart (id:1012533)
       范·迪塞尔 Vin Diesel (id:1041020)
       李淳 Mason Lee (id:1316450)
       麦肯兹·利 Makenzie Leigh (id:1344998)
       史蒂夫·马丁 Steve Martin (id:1022595)
       克里斯·塔克 Chris Tucker (id:1049514)
       本·普拉特 Ben Platt (id:1328012)
       阿图罗·卡斯特罗 Arturo Castro (id:1364652)
       亚斯特罗 Astro (id:1341260)
       博·纳普 Beau Knapp (id:1342556)
       伊斯梅尔·克鲁斯·科尔多瓦 Ismael Cruz Cordova (id:1268960)
       巴尼·哈里斯 Barney Harris (id:1357909)
       布鲁斯·麦金农 Bruce McKinnon (id:1364653)
       迪尔德丽·罗夫乔 Deirdre Lovejoy (id:1125327)
       劳拉·兰迪 Laura Lundy (id:1390151)
       艾伦·丹尼尔 Allen Daniel (id:1390152)
       兰迪·冈萨雷斯 Randy Gonzalez (id:1390153)
       蒂姆·布雷克·尼尔森 Tim Blake Nelson (id:1048166)
       克里斯托弗·马修·库克 Christopher Matthew Cook (id:1352714)
       杰伊·彼得森 Jay Peterson (id:1460405)
       法耶尔·阿尔-凯斯 Fajer Al-Kaisi (id:1230212)
       乔顿卡尔文 Jordanne Calvin (id:1368099)
       吉纳维芙亚当斯 Genevieve Adams (id:1366444)
       凯利·皮克勒 Kellie Pickler (id:1009509)
       波·米切尔 Bo Mitchell (id:1185323)
       克莱尔·布朗森 Claire Bronson (id:1463955)
       马克·普拉特 Marc Platt (id:1294606)
       杰夫·罗宾诺夫 Jeff Robinov (id:1409086)
       李安 Ang Lee (id:1054421)
       杰夫·丹纳 Jeff Danna (id:1276509)
       麦切尔·丹纳 Mychael Danna (id:1050402)
       约翰·托尔 John Toll (id:1276189)
       蒂姆·斯奎尔斯 Tim Squyres (id:1298208)

◎简  介
  伊拉克战争时期,来自美国德州的19岁技术兵比利·林恩(乔·阿尔文 Joe Alwyn 饰)因为一段偶然拍摄的视频而家喻户晓。那是一次规模不大却激烈非常的遭遇战,战斗中林恩所在的B班班长(范·迪塞尔 Vin Diesel 饰)遭到当地武装分子的伏击和劫持,而林恩为了营救班长不惜铤而走险冲锋陷阵。视频公布于世让他成为全美民众所崇拜的英雄,然而却鲜有人理解他和战友们所经历的一切。为了安葬班长,B班得到了短暂的休假,因此他们得以受邀参加一场在德州举行的橄榄球比赛。林恩的姐姐因某事件深感愧疚,她希望弟弟能借此机缘回归普通生活。而周围的经纪人、球迷、大老板、普通民众则对战争、卫国、士兵有着各种各样想当然的理解。球场上的庆典盛大开幕,林恩和战友们的心却愈加沉重与焦躁……                                    
                                本片根据作家本·方丹(Ben Fountain)的同名小说改编。

◎获奖情况 (共7项)
  第21届金卫星奖 (2017)
  电影部门 最佳摄影(提名)
   └──约翰·托尔 (id:1276189)
  电影部门 最佳视觉效果(提名)
   └──马克·O·福克 (id:1042881)
  电影部门 最佳剪辑(提名)
   └──蒂姆·斯奎尔斯 (id:1298208)
  电影部门 最佳音效(提名)

  第20届好莱坞电影奖 (2016)
  年度配乐
   └──麦切尔·丹纳 (id:1050402)

  第3届豆瓣电影年度榜单 (2016)
  评分最高的外语电影(提名)
  11月最受关注电影(提名)

  1. ##### MediaInfo ######
  2. General
  3. Unique ID                                : 181342073901847106393013116969653635747 (0x886D36892A764D89BBD351971A800AA3)
  4. Complete name                            : Billy.Lynn's.Long.Halftime.Walk.2016.BluRay.1080p.x265.10bit.HDR10.2Audio-MiniHD.mkv
  5. Format                                   : Matroska
  6. Format version                           : Version 4
  7. File size                                : 8.26 GiB
  8. Duration                                 : 1 h 52 min
  9. Overall bit rate mode                    : Variable
  10. Overall bit rate                         : 10.5 Mb/s
  11. Encoded date                             : UTC 2017-12-20 10:15:39
  12. Writing application                      : mkvmerge v18.0.0 ('Apricity') 64-bit
  13. Writing library                          : libebml v1.3.5 + libmatroska v1.4.8
  14. Video
  15. ID                                       : 1
  16. Format                                   : HEVC
  17. Format/Info                              : High Efficiency Video Coding
  18. Format profile                           : Main 10@L5.1@Main
  19. HDR format                               : SMPTE ST 2086, HDR10 compatible
  20. Codec ID                                 : V_MPEGH/ISO/HEVC
  21. Duration                                 : 1 h 52 min
  22. Bit rate                                 : 5 591 kb/s
  23. Width                                    : 1 920 pixels
  24. Height                                   : 1 038 pixels
  25. Display aspect ratio                     : 1.85:1
  26. Frame rate mode                          : Constant
  27. Frame rate                               : 59.940 (60000/1001/53354) FPS
  28. Color space                              : YUV
  29. Chroma subsampling                       : 4:2:0
  30. Bit depth                                : 10 bits
  31. Bits/(Pixel*Frame)                       : 0.047
  32. Stream size                              : 4.40 GiB (53%)
  33. Title                                    : HDR.hevc
  34. Default                                  : Yes
  35. Forced                                   : No
  36. Color range                              : Limited
  37. Color primaries                          : BT.2020
  38. Transfer characteristics                 : PQ
  39. Matrix coefficients                      : BT.2020 non-constant
  40. Mastering display color primaries        : Display P3
  41. Mastering display luminance              : min: 0.0050 cd/m2, max: 4000 cd/m2
  42. Maximum Content Light Level              : 2086 cd/m2
  43. Maximum Frame-Average Light Level        : 997 cd/m2
  44. Audio #1
  45. ID                                       : 2
  46. Format                                   : MLP FBA 16-ch
  47. Format/Info                              : Meridian Lossless Packing FBA with 16-channel presentation
  48. Commercial name                          : Dolby TrueHD with Dolby Atmos
  49. Codec ID                                 : A_TRUEHD
  50. Duration                                 : 1 h 52 min
  51. Bit rate mode                            : Variable
  52. Bit rate                                 : 4 024 kb/s
  53. Maximum bit rate                         : 8 145 kb/s
  54. Channel(s)                               : 8 channels
  55. Channel layout                           : L R C LFE Ls Rs Lb Rb
  56. Sampling rate                            : 48.0 kHz
  57. Frame rate                               : 1 200.000 FPS (40 SPF)
  58. Compression mode                         : Lossless
  59. Stream size                              : 3.17 GiB (38%)
  60. Title                                    : TrueHD Atmos7.1
  61. Language                                 : English
  62. Default                                  : Yes
  63. Forced                                   : No
  64. Number of dynamic objects                : 11
  65. Bed channel count                        : 1 channel
  66. Bed channel configuration                : LFE
  67. Audio #2
  68. ID                                       : 3
  69. Format                                   : AC-3
  70. Format/Info                              : Audio Coding 3
  71. Commercial name                          : Dolby Digital
  72. Codec ID                                 : A_AC3
  73. Duration                                 : 1 h 52 min
  74. Bit rate mode                            : Constant
  75. Bit rate                                 : 640 kb/s
  76. Channel(s)                               : 6 channels
  77. Channel layout                           : L R C LFE Ls Rs
  78. Sampling rate                            : 48.0 kHz
  79. Frame rate                               : 31.250 FPS (1536 SPF)
  80. Compression mode                         : Lossy
  81. Stream size                              : 516 MiB (6%)
  82. Title                                    : AC3 core
  83. Language                                 : English
  84. Service kind                             : Complete Main
  85. Default                                  : No
  86. Forced                                   : No
  87. Text #1
  88. ID                                       : 4
  89. Format                                   : PGS
  90. Codec ID                                 : S_HDMV/PGS
  91. Codec ID/Info                            : Picture based subtitle format used on BDs/HD-DVDs
  92. Duration                                 : 1 h 50 min
  93. Bit rate                                 : 43.2 kb/s
  94. Count of elements                        : 3535
  95. Stream size                              : 34.2 MiB (0%)
  96. Title                                    : 简体中文.sup
  97. Language                                 : Chinese
  98. Default                                  : Yes
  99. Forced                                   : No
  100. Text #2
  101. ID                                       : 5
  102. Format                                   : PGS
  103. Codec ID                                 : S_HDMV/PGS
  104. Codec ID/Info                            : Picture based subtitle format used on BDs/HD-DVDs
  105. Duration                                 : 1 h 50 min
  106. Bit rate                                 : 48.0 kb/s
  107. Count of elements                        : 3863
  108. Stream size                              : 38.0 MiB (0%)
  109. Title                                    : 繁体中文.sup
  110. Language                                 : Chinese
  111. Default                                  : No
  112. Forced                                   : No
  113. Text #3
  114. ID                                       : 6
  115. Format                                   : PGS
  116. Codec ID                                 : S_HDMV/PGS
  117. Codec ID/Info                            : Picture based subtitle format used on BDs/HD-DVDs
  118. Duration                                 : 1 h 45 min
  119. Bit rate                                 : 77.4 kb/s
  120. Count of elements                        : 4318
  121. Stream size                              : 58.6 MiB (1%)
  122. Title                                    : english.sup
  123. Language                                 : English
  124. Default                                  : No
  125. Forced                                   : No
  126. Menu
  127. 00:00:00.000                             : en:Chapter 01
  128. 00:06:05.865                             : en:Chapter 02
  129. 00:13:21.884                             : en:Chapter 03
  130. 00:20:11.293                             : en:Chapter 04
  131. 00:26:24.541                             : en:Chapter 05
  132. 00:31:10.410                             : en:Chapter 06
  133. 00:39:05.426                             : en:Chapter 07
  134. 00:48:51.929                             : en:Chapter 08
  135. 00:55:58.605                             : en:Chapter 09
  136. 01:04:18.354                             : en:Chapter 10
  137. 01:10:16.712                             : en:Chapter 11
  138. 01:17:14.630                             : en:Chapter 12
  139. 01:22:08.506                             : en:Chapter 13
  140. 01:29:13.264                             : en:Chapter 14
  141. 01:35:21.590                             : en:Chapter 15
  142. 01:42:52.457                             : en:Chapter 16


TAGS 剧情 战争 /

磁力链:
  • magnet:?xt=urn:btih:187D7E75C9FE348EF056793360DBA49086387800
上传的附件:
BT9527电影天堂 1、BT9527电影天堂提供的BT文件均来源于互联网抓取,只供网友学习交流、技术提升使用。
2、我们遵守BitTorrent点对点协议原则,任何版权问题请联系原资源发布商,我们不处理任何版权纠纷,谢谢!如有争议请联系邮箱:BT9527#hotmail.com(#换成@)
3、如果您发现某页面或地址有错误,请联系站长邮箱BT9527#hotmail.com(#换成@),我们会尽快处理。您的热心是对BT9527电影天堂最大的支持。
4、本站建议去正规影院观看电影以支持电影行业发展。
最新回复 (0)

你可以在 登录 or 注册 后,对此帖发表评论!

返回
发新帖