母亲![简繁英字幕].Mother!.2017.BluRay.1080p.x265.10bit-MiniHD 5.36GB

版主小s 25天前 201



◎译  名 母亲! / 妈妈!(港) / 母亲 / 母亲啊 / Day 6
◎片  名 Mother!
◎年  代 2017
◎产  地 美国
◎类  别 剧情 / 悬疑 / 恐怖
◎语  言 英语
◎上映日期 2017-09-05(威尼斯电影节) / 2017-09-15(美国)
◎IMDb链接 https://www.imdb.com/title/tt5109784/
◎豆瓣评分 6.6/10 (29187人评价)
◎豆瓣链接 https://movie.douban.com/subject/26648284/
◎片  长 121分钟
◎导  演 达伦·阿伦诺夫斯基 Darren Aronofsky (id:1041000)
◎编  剧 达伦·阿伦诺夫斯基 Darren Aronofsky (id:1041000)
◎演  员 詹妮弗·劳伦斯 Jennifer Lawrence (id:1022616)
       哈维尔·巴登 Javier Bardem (id:1054414)
       艾德·哈里斯 Ed Harris (id:1048024)
       米歇尔·菲佛 Michelle Pfeiffer (id:1035642)
       布莱恩·格里森 Brian Gleeson (id:1227388)
       多姆纳尔·格里森 Domhnall Gleeson (id:1313116)
       约翰·艾德坡 Jovan Adepo (id:1366311)
       阿曼达·赵 Amanda Chiu (id:1381367)
       帕特丽夏·萨默塞特 Patricia Summersett (id:1381373)
       埃里克·戴维斯 Eric Davis (id:1381374)
       拉斐尔·格罗斯-哈维 Raphael Grosz-Harvey (id:1381375)
       埃米丽·汉普希尔 Emily Hampshire (id:1049945)
       亚伯拉罕·阿罗诺夫斯基 Abraham Aronofsky (id:1313059)
       路易斯·奥利瓦 Luis Oliva (id:1128172)
       斯蒂芬妮·吴 Stephanie Ng Wan (id:1381376)
       克里斯托弗·加廷 Christopher Gartin (id:1093303)
       史蒂芬·麦克哈蒂 Stephen McHattie (id:1007032)
       亚瑟·霍尔顿 Arthur Holden (id:1374236)
       克里斯汀·韦格 Kristen Wiig (id:1022588)
       克里斯蒂娜·罗塞托 Cristina Rosato (id:1240735)
       玛西娅·让·库尔茨 Marcia Jean Kurtz (id:1313060)
       艾伦·沙努安 Alain Chanoine (id:1209060)
       金伯利·拉费里埃 Kimberly Laferriere (id:1110685)
       哈姆扎·哈克 Hamza Haq (id:1472432)
       达伦·阿伦诺夫斯基 Darren Aronofsky (id:1041000)
       约翰·约翰逊 Jóhann Jóhannsson (id:1331916)
       马修·利巴提克 Matthew Libatique (id:1009698)
       罗布·荷兰 Rob Holland (id:1410101)
       雷妮·莫尼梅克 Renae Moneymaker (id:1399656)
       尼娜·劳伦 Nina Lauren (id:1446878)
       帕蒂·史密斯 Patti Smith (id:1014221)

◎简  介
  他(哈维尔·巴登 Javier Bardem 饰)是一名作家,却遭遇了职业瓶颈期,一个字都写不出来。她(詹妮弗·劳伦斯 Jennifer Lawrence 饰)是一名主妇,每天忙于将两人的安乐窝修缮一新。一天,一个男人(艾德·哈里斯 Ed Harris 饰)敲响家门,这个男人是作家的超级粉丝,接着,男人的妻子(米歇尔·菲佛 Michelle Pfeiffer 饰)也登门拜访,这两人在家中随意穿梭肆意的打听着男女主人的隐私,这让她感到十分不快。                                    
                                尽管她三番五次的想要将这对粗鲁的夫妇请出门外,可他却对两人的拜访展现出了由衷的热情。之后,男人和女人的两个儿子也闯入家中,一场争执最终演变成为了流血事件。崩溃的她此时并不知道,这一流血事件仅仅只是失控和崩坏的开始。

◎获奖情况 (共6项)
  第74届威尼斯电影节 (2017)
  主竞赛单元 金狮奖 (提名)
   └──达伦·阿伦诺夫斯基 (id:1041000)

  第38届金酸莓奖 (2018)
  最差女主角(提名)
   └──詹妮弗·劳伦斯 (id:1022616)
  最差男配角(提名)
   └──哈维尔·巴登 (id:1054414)
  最差导演(提名)
   └──达伦·阿伦诺夫斯基 (id:1041000)

  第16届美国视觉效果协会奖 (2018)
  最佳电影辅助视觉效果(提名)

  第21届美国在线影评人协会奖 (2017)
  最佳影片(提名)

  1. ##### MediaInfo ######
  2. General
  3. Unique ID                                : 175105749701165083858882611484657186298 (0x83BC24037FA6E075861CBD1591B3F5FA)
  4. Complete name                            : Mother!.2017.BluRay.1080p.x265.10bit-MiniHD.mkv
  5. Format                                   : Matroska
  6. Format version                           : Version 4
  7. File size                                : 5.36 GiB
  8. Duration                                 : 2 h 1 min
  9. Overall bit rate                         : 6 334 kb/s
  10. Encoded date                             : UTC 2017-12-23 01:32:56
  11. Writing application                      : mkvmerge v18.0.0 ('Apricity') 64-bit
  12. Writing library                          : libebml v1.3.5 + libmatroska v1.4.8
  13. Video
  14. ID                                       : 1
  15. Format                                   : HEVC
  16. Format/Info                              : High Efficiency Video Coding
  17. Format profile                           : Main 10@L4@Main
  18. Codec ID                                 : V_MPEGH/ISO/HEVC
  19. Duration                                 : 2 h 1 min
  20. Bit rate                                 : 5 630 kb/s
  21. Width                                    : 1 920 pixels
  22. Height                                   : 804 pixels
  23. Display aspect ratio                     : 2.40:1
  24. Frame rate mode                          : Constant
  25. Frame rate                               : 23.976 (24000/1001/53354) FPS
  26. Color space                              : YUV
  27. Chroma subsampling                       : 4:2:0
  28. Bit depth                                : 10 bits
  29. Bits/(Pixel*Frame)                       : 0.152
  30. Stream size                              : 4.77 GiB (89%)
  31. Writing library                          : x265 2.5+66-dae558b40d99:[Windows][GCC 7.2.0][64 bit] 10bit
  32. Encoding settings                        : cpuid=533541050111 / frame-threads=4 / numa-pools=20,- / wpp / no-pmode / no-pme / no-psnr / no-ssim / log-level=2 / csvfn=D:\working\00002.log / csv-log-level=0 / input-csp=1 / input-res=1920x804 / interlace=0 / total-frames=174348 / level-idc=0 / high-tier=1 / uhd-bd=0 / ref=5 / no-allow-non-conformance / no-repeat-headers / annexb / no-aud / no-hrd / info / hash=0 / no-temporal-layers / no-open-gop / min-keyint=1 / keyint=360 / bframes=8 / b-adapt=2 / b-pyramid / bframe-bias=0 / rc-lookahead=60 / lookahead-slices=4 / NTMzNTQ=uuDQuD2mJt9fsCf / scenecut=40 / no-intra-refresh / ctu=32 / min-cu-size=8 / rect / no-amp / max-tu-size=16 / tu-inter-depth=2 / tu-intra-depth=2 / limit-tu=4 / rdoq-level=2 / dynamic-rd=0.00 / ssim-rd / signhide / no-tskip / nr-intra=0 / nr-inter=0 / no-constrained-intra / no-strong-intra-smoothing / max-merge=3 / limit-refs=2 / limit-modes / me=3 / subme=5 / merange=25 / temporal-mvp / weightp / weightb / no-analyze-src-pics / deblock=-1:-1 / no-sao / no-sao-non-deblock / rd=4 / no-early-skip / rskip / no-fast-intra / no-tskip-fast / no-cu-lossless / b-intra / no-splitrd-skip / rdpenalty=1 / psy-rd=0.00 / psy-rdoq=5.00 / no-rd-refine / analysis-reuse-mode=0 / no-lossless / cbqpoffs=-2 / crqpoffs=-2 / rc=crf / crf=19.0 / qcomp=0.70 / qpstep=4 / stats-write=0 / stats-read=0 / ipratio=1.40 / pbratio=1.30 / aq-mode=2 / aq-strength=0.80 / cutree / zone-count=0 / no-strict-cbr / qg-size=16 / no-rc-grain / qpmax=69 / qpmin=0 / no-const-vbv / sar=0 / overscan=0 / videoformat=5 / range=0 / colorprim=1 / transfer=2 / colormatrix=2 / chromaloc=0 / display-window=0 / max-cll=0,0 / min-luma=0 / max-luma=1023 / log2-max-poc-lsb=8 / vui-timing-info / vui-hrd-info / slices=1 / no-opt-qp-pps / no-opt-ref-list-length-pps / no-multi-pass-opt-rps / scenecut-bias=0.05 / no-opt-cu-delta-qp / no-aq-motion / no-hdr / no-hdr-opt / no-dhdr10-opt / analysis-reuse-level=5 / scale-factor=0 / refine-intra=0 / refine-inter=0 / refine-mv=0 / no-limit-sao / ctu-info=0 / no-lowpass-dct / refine-mv-type=0 / copy-pic=1
  33. Language                                 : English
  34. Default                                  : Yes
  35. Forced                                   : No
  36. Color range                              : Limited
  37. Color primaries                          : BT.709
  38. Audio
  39. ID                                       : 2
  40. Format                                   : AC-3
  41. Format/Info                              : Audio Coding 3
  42. Commercial name                          : Dolby Digital
  43. Codec ID                                 : A_AC3
  44. Duration                                 : 2 h 1 min
  45. Bit rate mode                            : Constant
  46. Bit rate                                 : 640 kb/s
  47. Channel(s)                               : 6 channels
  48. Channel layout                           : L R C LFE Ls Rs
  49. Sampling rate                            : 48.0 kHz
  50. Frame rate                               : 31.250 FPS (1536 SPF)
  51. Compression mode                         : Lossy
  52. Stream size                              : 555 MiB (10%)
  53. Title                                    : English
  54. Language                                 : English
  55. Service kind                             : Complete Main
  56. Default                                  : Yes
  57. Forced                                   : No
  58. Text #1
  59. ID                                       : 3
  60. Format                                   : PGS
  61. Muxing mode                              : zlib
  62. Codec ID                                 : S_HDMV/PGS
  63. Codec ID/Info                            : Picture based subtitle format used on BDs/HD-DVDs
  64. Duration                                 : 1 h 54 min
  65. Bit rate                                 : 24.3 kb/s
  66. Count of elements                        : 2532
  67. Stream size                              : 19.9 MiB (0%)
  68. Title                                    : English
  69. Language                                 : English
  70. Default                                  : Yes
  71. Forced                                   : No
  72. Text #2
  73. ID                                       : 4
  74. Format                                   : PGS
  75. Muxing mode                              : zlib
  76. Codec ID                                 : S_HDMV/PGS
  77. Codec ID/Info                            : Picture based subtitle format used on BDs/HD-DVDs
  78. Duration                                 : 1 h 57 min
  79. Bit rate                                 : 25.7 kb/s
  80. Count of elements                        : 2090
  81. Stream size                              : 21.6 MiB (0%)
  82. Title                                    : CHS
  83. Language                                 : Chinese
  84. Default                                  : No
  85. Forced                                   : No
  86. Text #3
  87. ID                                       : 5
  88. Format                                   : PGS
  89. Muxing mode                              : zlib
  90. Codec ID                                 : S_HDMV/PGS
  91. Codec ID/Info                            : Picture based subtitle format used on BDs/HD-DVDs
  92. Duration                                 : 1 h 57 min
  93. Bit rate                                 : 25.5 kb/s
  94. Count of elements                        : 2090
  95. Stream size                              : 21.4 MiB (0%)
  96. Title                                    : CHT
  97. Language                                 : Chinese
  98. Default                                  : No
  99. Forced                                   : No
  100. Text #4
  101. ID                                       : 6
  102. Format                                   : PGS
  103. Muxing mode                              : zlib
  104. Codec ID                                 : S_HDMV/PGS
  105. Codec ID/Info                            : Picture based subtitle format used on BDs/HD-DVDs
  106. Duration                                 : 1 h 57 min
  107. Bit rate                                 : 32.1 kb/s
  108. Count of elements                        : 2095
  109. Stream size                              : 27.0 MiB (0%)
  110. Title                                    : CHS&ENG
  111. Language                                 : Chinese
  112. Default                                  : No
  113. Forced                                   : No
  114. Text #5
  115. ID                                       : 7
  116. Format                                   : PGS
  117. Muxing mode                              : zlib
  118. Codec ID                                 : S_HDMV/PGS
  119. Codec ID/Info                            : Picture based subtitle format used on BDs/HD-DVDs
  120. Duration                                 : 1 h 57 min
  121. Bit rate                                 : 32.4 kb/s
  122. Count of elements                        : 2095
  123. Stream size                              : 27.2 MiB (0%)
  124. Title                                    : CHT&ENG
  125. Language                                 : Chinese
  126. Default                                  : No
  127. Forced                                   : No
  128. Menu
  129. 00:00:00.000                             : en:00:00:00.000
  130. 00:06:22.507                             : en:00:06:22.507
  131. 00:10:21.079                             : en:00:10:21.079
  132. 00:15:59.500                             : en:00:15:59.500
  133. 00:21:37.922                             : en:00:21:37.922
  134. 00:24:59.415                             : en:00:24:59.415
  135. 00:31:31.056                             : en:00:31:31.056
  136. 00:38:29.224                             : en:00:38:29.224
  137. 00:44:57.028                             : en:00:44:57.028
  138. 00:49:35.764                             : en:00:49:35.764
  139. 00:53:43.303                             : en:00:53:43.303
  140. 01:02:19.694                             : en:01:02:19.694
  141. 01:08:24.809                             : en:01:08:24.809
  142. 01:16:52.191                             : en:01:16:52.191
  143. 01:20:30.909                             : en:01:20:30.909
  144. 01:28:26.885                             : en:01:28:26.885
  145. 01:38:08.716                             : en:01:38:08.716
  146. 01:45:52.638                             : en:01:45:52.638
  147. 01:49:48.624                             : en:01:49:48.624
  148. 01:56:21.183                             : en:01:56:21.183


TAGS 剧情 恐怖 悬疑 /

磁力链:
  • magnet:?xt=urn:btih:DB769D0D48F9A441FF1A165F7D06ECC1130AECE9
上传的附件:
BT9527电影天堂 1、BT9527电影天堂提供的BT文件均来源于互联网抓取,只供网友学习交流、技术提升使用。
2、我们遵守BitTorrent点对点协议原则,任何版权问题请联系原资源发布商,我们不处理任何版权纠纷,谢谢!如有争议请联系邮箱:BT9527#hotmail.com(#换成@)
3、如果您发现某页面或地址有错误,请联系站长邮箱BT9527#hotmail.com(#换成@),我们会尽快处理。您的热心是对BT9527电影天堂最大的支持。
4、本站建议去正规影院观看电影以支持电影行业发展。
最新回复 (0)

你可以在 登录 or 注册 后,对此帖发表评论!

返回
发新帖