暗夜之女[杜比视界版本][简繁英字幕].Les.rouges.AKA.Daughters.of.Darkness.1971.UHD.BluRay.2160p.x265.DV.HDR.TrueHD.Atmos-MiniHD 18.06GB

版主小s 29天前 277



◎译  名 暗夜之女 / 黑暗 / Daughter of Darkness
◎片  名 Les lèvres rouges
◎年  代 1971
◎产  地 比利时 / 法国 / 西德
◎类  别 恐怖
◎语  言 荷兰语 / 英语
◎上映日期 1971-05-28
◎IMDb链接 https://www.imdb.com/title/tt0067690/
◎豆瓣评分 6.6/10 (319人评价)
◎豆瓣链接 https://movie.douban.com/subject/1300178/
◎片  长 USA: 100 分钟(uncut version)
◎导  演 哈里·库默 Harry Kümel (id:1005592)
◎编  剧 哈里·库默 Harry Kümel (id:1005592)
       皮埃尔·德鲁奥 Pierre Drouot (id:1042870)
◎演  员 德菲因·塞里格 Delphine Seyrig (id:1000594)
       约翰·卡伦 John Karlen (id:1106649)
       丹妮尔·维梅特 Danielle Ouimet (id:1130913)
       安德烈娅·拉乌 Andrea Rau (id:1147736)
       保罗·埃塞尔 Paul Esser (id:1082080)
       Georges Jamin Georges Jamin (id:1109521)
       Joris Collet Joris Collet (id:1071467)
       冯斯·罗德麦克斯 Fons Rademakers (id:1051127)
       皮埃尔·德鲁奥 Pierre Drouot (id:1042870)
       Luggi Waldleitner Luggi Waldleitner (id:1038895)
       Henry Lange Henry Lange (id:1106210)
       弗朗索瓦·德·鲁拜克斯 Fran?ois de Roubaix (id:1001416)
       Jean-Marc Turine Jean-Marc Turine (id:1299631)

◎简  介
  A 300-year-old lesbian vampire and her lover stay at a posh European resort. They seduce a sadistic husband and his beautiful wife. The husband is soon found dead, and his wife joins the two vampires.

  1. ##### MediaInfo ######
  2. General
  3. Unique ID                                : 57974081458787316757133361302541547221 (0x2B9D66E6101ED121FE8C0A19F3F9B6D5)
  4. Complete name                            : Les.lèvres.rouges.AKA.Daughters.of.Darkness.1971.UHD.BluRay.2160p.x265.DV.HDR.TrueHD.Atmos-MiniHD.mkv
  5. Format                                   : Matroska
  6. Format version                           : Version 4
  7. File size                                : 18.1 GiB
  8. Duration                                 : 1 h 40 min
  9. Overall bit rate mode                    : Variable
  10. Overall bit rate                         : 25.8 Mb/s
  11. Movie name                               : Daughters Of Darkness 1971 UHD BluRay 2160p - FRDS
  12. Encoded date                             : UTC 2022-04-01 16:09:42
  13. Writing application                      : mkvmerge v66.0.0 ('Josie') 64-bit
  14. Writing library                          : libebml v1.4.2 + libmatroska v1.6.4
  15. Cover                                    : Yes
  16. Attachments                              : cover.jpg
  17. Video
  18. ID                                       : 1
  19. Format                                   : HEVC
  20. Format/Info                              : High Efficiency Video Coding
  21. Format profile                           : Main 10@L5.1@High
  22. HDR format                               : SMPTE ST 2086, HDR10 compatible
  23. Codec ID                                 : V_MPEGH/ISO/HEVC
  24. Duration                                 : 1 h 40 min
  25. Bit rate                                 : 20.4 Mb/s
  26. Width                                    : 3 600 pixels
  27. Height                                   : 2 160 pixels
  28. Display aspect ratio                     : 5:3
  29. Frame rate mode                          : Constant
  30. Frame rate                               : 23.976 (24000/1001/53354) FPS
  31. Color space                              : YUV
  32. Chroma subsampling                       : 4:2:0
  33. Bit depth                                : 10 bits
  34. Bits/(Pixel*Frame)                       : 0.110
  35. Stream size                              : 14.3 GiB (79%)
  36. Writing library                          : x265 3.3+3-g8f8e332f1+29:[Windows][#Erg`Djh#][@Yuuki] made by @Dongfangbubai
  37. Encoding settings                        : rc=crf / crf=20.0000 / qcomp=0.70 / qpstep=4 / stats-write=0 / stats-read=0 / vbv-maxrate=160000 / vbv-bufsize=160000 / vbv-init=0.9 / crf-max=0.0 / crf-min=0.0 / no-lossless / no-cu-lossless / aq-mode=3 / aq-strength=0.80 / cbqpoffs=-3 / crqpoffs=-3 / ipratio=1.40 / pbratio=1.30 / psy-rd=2.00 / psy-rdoq=3.00 / deblock=-1:-1 / ref=5 / limit-refs=0 / no-limit-modes / bframes=8 / b-adapt=2 / bframe-bias=0 / b-pyramid / b-intra / weightp / weightb / min-keyint=23 / max-keyint=240 / rc-lookahead=60 / gop-lookahead=0 / NTMzNTQ=uuDQuD2mJt9fsCf / scenecut=40 / hist-scenecut=0 / radl=0 / max-cu-size=32 / min-cu-size=8 / me=3 / subme=4 / merange=25 / rdoq-level=2 / rd=4 / rdpenalty=1 / dynamic-rd=0.00 / no-rd-refine / ----- / no-cutree / no-sao / no-rect / no-amp / no-open-gop / wpp / pmode / pme / no-psnr / no-ssim / nr-intra=0 / nr-inter=0 / no-constrained-intra / no-strong-intra-smoothing / max-tu-size=32 / tu-inter-depth=2 / tu-intra-depth=2 / limit-tu=0 / qg-size=32 / qpmax=69 / qpmin=0 / ----- / cpuid=533541176575 / frame-threads=6 / numa-pools=54,- / log-level=2 / input-csp=1 / input-res=3600x2160 / interlace=0 / level-idc=0 / high-tier=1 / uhd-bd=0 / no-allow-non-conformance / no-repeat-headers / no-aud / hrd / info / hash=0 / no-temporal-layers / lookahead-slices=0 / no-splice / no-intra-refresh / no-ssim-rd / signhide / no-tskip / max-merge=3 / temporal-mvp / no-frame-dup / no-hme / no-analyze-src-pics / no-sao-non-deblock / selective-sao=0 / no-early-skip / no-rskip / no-fast-intra / no-tskip-fast / no-splitrd-skip / zone-count=0 / no-strict-cbr / no-rc-grain / no-const-vbv / sar=0 / overscan=0 / videoformat=5 / range=0 / colorprim=9 / transfer=16 / colormatrix=9 / chromaloc=0 / display-window=0 / master-display=G(13250,34500)B(7500,3000)R(34000,16000)WP(15635,16450)L(10000000,1) / cll=0,0 / min-luma=0 / max-luma=1023 / log2-max-poc-lsb=8 / vui-timing-info / vui-hrd-info / slices=1 / no-opt-qp-pps / no-opt-ref-list-length-pps / no-multi-pass-opt-rps / scenecut-bias=0.05 / hist-threshold=0.01 / no-opt-cu-delta-qp / no-aq-motion / hdr10 / hdr10-opt / no-dhdr10-opt / no-idr-recovery-sei / analysis-reuse-level=0 / analysis-save-reuse-level=0 / analysis-load-reuse-level=0 / scale-factor=0 / refine-intra=0 / refine-inter=0 / refine-mv=1 / refine-ctu-distortion=0 / no-limit-sao / ctu-info=0 / no-lowpass-dct / refine-analysis-type=0 / copy-pic=1 / max-ausize-factor=1.0 / no-dynamic-refine / no-single-sei / no-hevc-aq / no-svt / no-field / qp-adaptation-range=1.00 / no-scenecut-aware-qpconformance-window-offsets / right=0 / bottom=0 / NTMzNTQ=
  38. Default                                  : Yes
  39. Forced                                   : No
  40. Color range                              : Limited
  41. Color primaries                          : BT.2020
  42. Transfer characteristics                 : PQ
  43. Matrix coefficients                      : BT.2020 non-constant
  44. Mastering display color primaries        : Display P3
  45. Mastering display luminance              : min: 0.0001 cd/m2, max: 1000 cd/m2
  46. Audio #1
  47. ID                                       : 2
  48. ID in the original source medium         : 4352 (0x1100)
  49. Format                                   : MLP FBA 16-ch
  50. Format/Info                              : Meridian Lossless Packing FBA with 16-channel presentation
  51. Commercial name                          : Dolby TrueHD with Dolby Atmos
  52. Codec ID                                 : A_TRUEHD
  53. Duration                                 : 1 h 40 min
  54. Bit rate mode                            : Variable
  55. Bit rate                                 : 3 294 kb/s
  56. Maximum bit rate                         : 4 953 kb/s
  57. Channel(s)                               : 8 channels
  58. Channel layout                           : L R C LFE Ls Rs Lb Rb
  59. Sampling rate                            : 48.0 kHz
  60. Frame rate                               : 1 200.000 FPS (40 SPF)
  61. Compression mode                         : Lossless
  62. Stream size                              : 2.30 GiB (13%)
  63. Language                                 : English
  64. Default                                  : Yes
  65. Forced                                   : No
  66. Original source medium                   : Blu-ray
  67. Number of dynamic objects                : 11
  68. Bed channel count                        : 1 channel
  69. Bed channel configuration                : LFE
  70. Audio #2
  71. ID                                       : 3
  72. ID in the original source medium         : 4352 (0x1100)
  73. Format                                   : AC-3
  74. Format/Info                              : Audio Coding 3
  75. Commercial name                          : Dolby Digital
  76. Codec ID                                 : A_AC3
  77. Duration                                 : 1 h 40 min
  78. Bit rate mode                            : Constant
  79. Bit rate                                 : 640 kb/s
  80. Channel(s)                               : 6 channels
  81. Channel layout                           : L R C LFE Ls Rs
  82. Sampling rate                            : 48.0 kHz
  83. Frame rate                               : 31.250 FPS (1536 SPF)
  84. Compression mode                         : Lossy
  85. Stream size                              : 458 MiB (2%)
  86. Title                                    : Compatibility Track (Surround remix)
  87. Language                                 : English
  88. Service kind                             : Complete Main
  89. Default                                  : No
  90. Forced                                   : No
  91. Original source medium                   : Blu-ray
  92. Audio #3
  93. ID                                       : 4
  94. Format                                   : FLAC
  95. Format/Info                              : Free Lossless Audio Codec
  96. Codec ID                                 : A_FLAC
  97. Duration                                 : 1 h 40 min
  98. Bit rate mode                            : Variable
  99. Bit rate                                 : 205 kb/s
  100. Channel(s)                               : 1 channel
  101. Channel layout                           : C
  102. Sampling rate                            : 48.0 kHz
  103. Frame rate                               : 10.417 FPS (4608 SPF)
  104. Bit depth                                : 16 bits
  105. Compression mode                         : Lossless
  106. Stream size                              : 147 MiB (1%)
  107. Writing library                          : Lavf58.29.100
  108. Language                                 : English
  109. Default                                  : No
  110. Forced                                   : No
  111. Audio #4
  112. ID                                       : 5
  113. Format                                   : FLAC
  114. Format/Info                              : Free Lossless Audio Codec
  115. Codec ID                                 : A_FLAC
  116. Duration                                 : 1 h 40 min
  117. Bit rate mode                            : Variable
  118. Bit rate                                 : 535 kb/s
  119. Channel(s)                               : 1 channel
  120. Channel layout                           : C
  121. Sampling rate                            : 48.0 kHz
  122. Frame rate                               : 10.417 FPS (4608 SPF)
  123. Bit depth                                : 24 bits
  124. Compression mode                         : Lossless
  125. Stream size                              : 383 MiB (2%)
  126. Writing library                          : Lavf58.29.100
  127. Language                                 : French
  128. Default                                  : No
  129. Forced                                   : No
  130. Audio #5
  131. ID                                       : 6
  132. ID in the original source medium         : 4356 (0x1104)
  133. Format                                   : AC-3
  134. Format/Info                              : Audio Coding 3
  135. Commercial name                          : Dolby Digital
  136. Codec ID                                 : A_AC3
  137. Duration                                 : 1 h 40 min
  138. Bit rate mode                            : Constant
  139. Bit rate                                 : 192 kb/s
  140. Channel(s)                               : 2 channels
  141. Channel layout                           : L R
  142. Sampling rate                            : 48.0 kHz
  143. Frame rate                               : 31.250 FPS (1536 SPF)
  144. Compression mode                         : Lossy
  145. Stream size                              : 137 MiB (1%)
  146. Title                                    : Commentary with director/co-writer Harry Kümel
  147. Language                                 : English
  148. Service kind                             : Complete Main
  149. Default                                  : No
  150. Forced                                   : No
  151. Original source medium                   : Blu-ray
  152. Audio #6
  153. ID                                       : 7
  154. ID in the original source medium         : 4357 (0x1105)
  155. Format                                   : AC-3
  156. Format/Info                              : Audio Coding 3
  157. Commercial name                          : Dolby Digital
  158. Codec ID                                 : A_AC3
  159. Duration                                 : 1 h 40 min
  160. Bit rate mode                            : Constant
  161. Bit rate                                 : 192 kb/s
  162. Channel(s)                               : 2 channels
  163. Channel layout                           : L R
  164. Sampling rate                            : 48.0 kHz
  165. Frame rate                               : 31.250 FPS (1536 SPF)
  166. Compression mode                         : Lossy
  167. Stream size                              : 137 MiB (1%)
  168. Title                                    : Commentary with actor John Karlen and journalist David Del Valle
  169. Language                                 : English
  170. Service kind                             : Complete Main
  171. Default                                  : No
  172. Forced                                   : No
  173. Original source medium                   : Blu-ray
  174. Audio #7
  175. ID                                       : 8
  176. ID in the original source medium         : 4358 (0x1106)
  177. Format                                   : AC-3
  178. Format/Info                              : Audio Coding 3
  179. Commercial name                          : Dolby Digital
  180. Codec ID                                 : A_AC3
  181. Duration                                 : 1 h 40 min
  182. Bit rate mode                            : Constant
  183. Bit rate                                 : 192 kb/s
  184. Channel(s)                               : 2 channels
  185. Channel layout                           : L R
  186. Sampling rate                            : 48.0 kHz
  187. Frame rate                               : 31.250 FPS (1536 SPF)
  188. Compression mode                         : Lossy
  189. Stream size                              : 137 MiB (1%)
  190. Title                                    : Commentary with Kat Ellinger, author of Devil’s Advocates: Daughters of Darkness
  191. Language                                 : English
  192. Service kind                             : Complete Main
  193. Default                                  : No
  194. Forced                                   : No
  195. Original source medium                   : Blu-ray
  196. Text #1
  197. ID                                       : 9
  198. ID in the original source medium         : 4768 (0x12A0)
  199. Format                                   : PGS
  200. Muxing mode                              : zlib
  201. Codec ID                                 : S_HDMV/PGS
  202. Codec ID/Info                            : Picture based subtitle format used on BDs/HD-DVDs
  203. Duration                                 : 1 h 37 min
  204. Bit rate                                 : 27.1 kb/s
  205. Count of elements                        : 1864
  206. Stream size                              : 18.9 MiB (0%)
  207. Language                                 : English
  208. Default                                  : No
  209. Forced                                   : No
  210. Original source medium                   : Blu-ray
  211. Text #2
  212. ID                                       : 10
  213. ID in the original source medium         : 4769 (0x12A1)
  214. Format                                   : PGS
  215. Muxing mode                              : zlib
  216. Codec ID                                 : S_HDMV/PGS
  217. Codec ID/Info                            : Picture based subtitle format used on BDs/HD-DVDs
  218. Duration                                 : 1 h 37 min
  219. Bit rate                                 : 24.6 kb/s
  220. Count of elements                        : 1642
  221. Stream size                              : 17.2 MiB (0%)
  222. Language                                 : French
  223. Default                                  : No
  224. Forced                                   : No
  225. Original source medium                   : Blu-ray
  226. Text #3
  227. ID                                       : 11
  228. ID in the original source medium         : 4770 (0x12A2)
  229. Format                                   : PGS
  230. Muxing mode                              : zlib
  231. Codec ID                                 : S_HDMV/PGS
  232. Codec ID/Info                            : Picture based subtitle format used on BDs/HD-DVDs
  233. Duration                                 : 1 h 37 min
  234. Bit rate                                 : 23.4 kb/s
  235. Count of elements                        : 1642
  236. Stream size                              : 16.3 MiB (0%)
  237. Language                                 : Spanish
  238. Default                                  : No
  239. Forced                                   : No
  240. Original source medium                   : Blu-ray
  241. Text #4
  242. ID                                       : 12
  243. ID in the original source medium         : 4771 (0x12A3)
  244. Format                                   : PGS
  245. Muxing mode                              : zlib
  246. Codec ID                                 : S_HDMV/PGS
  247. Codec ID/Info                            : Picture based subtitle format used on BDs/HD-DVDs
  248. Duration                                 : 1 h 36 min
  249. Bit rate                                 : 23.8 kb/s
  250. Count of elements                        : 1684
  251. Stream size                              : 16.4 MiB (0%)
  252. Language                                 : English
  253. Default                                  : No
  254. Forced                                   : No
  255. Original source medium                   : Blu-ray
  256. Text #5
  257. ID                                       : 13
  258. ID in the original source medium         : 4772 (0x12A4)
  259. Format                                   : PGS
  260. Muxing mode                              : zlib
  261. Codec ID                                 : S_HDMV/PGS
  262. Codec ID/Info                            : Picture based subtitle format used on BDs/HD-DVDs
  263. Duration                                 : 1 h 36 min
  264. Bit rate                                 : 19.4 kb/s
  265. Count of elements                        : 1601
  266. Stream size                              : 13.3 MiB (0%)
  267. Title                                    : CHS
  268. Language                                 : Chinese
  269. Default                                  : No
  270. Forced                                   : No
  271. Original source medium                   : Blu-ray
  272. Text #6
  273. ID                                       : 14
  274. ID in the original source medium         : 4773 (0x12A5)
  275. Format                                   : PGS
  276. Muxing mode                              : zlib
  277. Codec ID                                 : S_HDMV/PGS
  278. Codec ID/Info                            : Picture based subtitle format used on BDs/HD-DVDs
  279. Duration                                 : 1 h 36 min
  280. Bit rate                                 : 19.8 kb/s
  281. Count of elements                        : 1601
  282. Stream size                              : 13.7 MiB (0%)
  283. Title                                    : CHT
  284. Language                                 : Chinese
  285. Default                                  : No
  286. Forced                                   : No
  287. Original source medium                   : Blu-ray
  288. Text #7
  289. ID                                       : 15
  290. Format                                   : UTF-8
  291. Codec ID                                 : S_TEXT/UTF8
  292. Codec ID/Info                            : UTF-8 Plain Text
  293. Duration                                 : 1 h 36 min
  294. Bit rate                                 : 45 b/s
  295. Count of elements                        : 826
  296. Stream size                              : 32.1 KiB (0%)
  297. Title                                    : CHS(Grey)
  298. Language                                 : Chinese
  299. Default                                  : Yes
  300. Forced                                   : No
  301. Text #8
  302. ID                                       : 16
  303. Format                                   : UTF-8
  304. Codec ID                                 : S_TEXT/UTF8
  305. Codec ID/Info                            : UTF-8 Plain Text
  306. Duration                                 : 1 h 36 min
  307. Bit rate                                 : 45 b/s
  308. Count of elements                        : 826
  309. Stream size                              : 32.1 KiB (0%)
  310. Title                                    : CHT(Grey)
  311. Language                                 : Chinese
  312. Default                                  : Yes
  313. Forced                                   : No
  314. Text #9
  315. ID                                       : 17
  316. Format                                   : UTF-8
  317. Codec ID                                 : S_TEXT/UTF8
  318. Codec ID/Info                            : UTF-8 Plain Text
  319. Duration                                 : 1 h 36 min
  320. Bit rate                                 : 29 b/s
  321. Count of elements                        : 826
  322. Stream size                              : 20.8 KiB (0%)
  323. Title                                    : CHS
  324. Language                                 : Chinese
  325. Default                                  : No
  326. Forced                                   : No
  327. Menu
  328. 00:00:00.000                             : en:1. Main Titles
  329. 00:01:13.073                             : en:2. Newlyweds On A Train
  330. 00:06:12.997                             : en:3. Deserted Hotel
  331. 00:11:05.122                             : en:4. The Countess Arrives
  332. 00:16:00.960                             : en:5. The Eyes Of Jealousy
  333. 00:18:46.125                             : en:6. Morning Shave
  334. 00:22:18.837                             : en:7. Dead Girl's Body
  335. 00:27:59.135                             : en:8. Leaving
  336. 00:31:04.988                             : en:9. News Of Murder
  337. 00:37:56.232                             : en:10. The Blood Of Youth
  338. 00:41:22.479                             : en:11. Night Visitor
  339. 00:45:42.364                             : en:12. Bedtime
  340. 00:49:11.240                             : en:13. Mother
  341. 00:52:44.744                             : en:14. A Brutal Beating
  342. 00:58:26.544                             : en:15. Seduction Of The Innocents
  343. 01:03:11.913                             : en:16. Carnal Desire
  344. 01:08:12.838                             : en:17. The Shower
  345. 01:12:43.359                             : en:18. Disposing Of The Body
  346. 01:17:12.669                             : en:19. Shallow Grave
  347. 01:20:23.985                             : en:20. Spellbound
  348. 01:26:49.162                             : en:21. "The Blood! The Blood!"
  349. 01:33:52.710                             : en:22. "Faster! Faster!"
  350. 01:36:55.476                             : en:23. New Friends
  351. 01:38:55.304                             : en:24. End Credits


TAGS 恐怖

磁力链:
  • magnet:?xt=urn:btih:D9597291E0B24531998BAF646CF4D63E32C35A1B
上传的附件:
BT9527电影天堂 1、BT9527电影天堂提供的BT文件均来源于互联网抓取,只供网友学习交流、技术提升使用。
2、我们遵守BitTorrent点对点协议原则,任何版权问题请联系原资源发布商,我们不处理任何版权纠纷,谢谢!如有争议请联系邮箱:BT9527#hotmail.com(#换成@)
3、如果您发现某页面或地址有错误,请联系站长邮箱BT9527#hotmail.com(#换成@),我们会尽快处理。您的热心是对BT9527电影天堂最大的支持。
4、本站建议去正规影院观看电影以支持电影行业发展。
最新回复 (0)

你可以在 登录 or 注册 后,对此帖发表评论!

返回
发新帖