圣战风云[国粤多音轨/简繁英字幕].Undeclared.War.1990.1080p.BluRay.DD5.1.2Audio.x265-10bit-ENTHD 8.61GB

版主小s 26天前 184

◎译 名 圣战风云 / Undeclared War

◎片 名 聖戰風雲

◎年 代 1990

◎产 地 中国香港

◎类 别 动作 / 惊悚 / 犯罪

◎语 言 粤语 / 英语 / 波兰语

◎上映日期 1990-09-01(中国香港)

◎IMDb链接 https://www.imdb.com/title/tt0100595/

◎豆瓣评分 5.8/10 (554人评价)

◎豆瓣链接 https://movie.douban.com/subject/1298048/

◎片 长 106 分钟

◎导 演 林岭东 Ringo Lam (id:1275076)

◎编 剧 南燕 Yin Nam (id:1292902)

鲁亦诗 Louis Roth (id:1321259)

◎演 员 李修贤 Danny Lee (id:1025452)

黄光亮 Kwong Leung Wong (id:1301194)

关之琳 Rosamund Kwan (id:1028064)

弗农·威尔斯 Vernon Wells (id:1164947)

奥丽维娅·赫西 Olivia Hussey (id:1002718)

韩坤 Victor Hon Kwan (id:1365336)

鲁亦诗 Louis Roth (id:1321259)

火星 Mars (id:1033056)

伍国健 Kwok-kin Ng (id:1418713)

Andrzej Szenajch Andrzej Szenajch (id:1013113)

彼得·利亚皮斯 Peter Liapis (id:1028748)

大卫·海迪生 David Hedison (id:1048234)

迪恩·哈灵顿 Dean Harrington (id:1094752)

达努塔·科瓦尔斯卡 Danuta Kowalska (id:1111048)

艾娃·维斯涅夫斯卡 Ewa Wisniewska (id:1165828)

梁聪 Leung Chung (id:1471582)

林岭东 Ringo Lam (id:1275076)

麦嘉 Karl Maka (id:1274986)

雷楚雄 Bill Lui (id:1290436)

罗礼贤 Bruce Law (id:1289542)

◎简 介

波兰华沙的解放同盟军其实是个打着革命旗号的恐怖组织,为了显示自己的力量,他们准备在美国商务代表团访问香港时制造爆炸事件,借此达到他们的政治目的。美国中央情报局掌握这一线索后派干探域拿赴港阻止这场阴谋,由于事关政治因素,故香港政治部亦派出李督察(李修贤)协助域拿行动。 两个来自不同环境的探员刚开始水火不容,渐渐产生深厚友谊,同心协力粉碎了恐怖组织的爆炸企图,还击伤这个组织的首领。 可是事情并没有结束,死里逃生的恐怖组织头目孤身闯入电视台新闻部,劫持了所有工作人员,其中包括李督察的女友Annie(关之琳),他准备在此制造流血事件,并向全世界转播,此时李督察与域拿双双赶到,不料李的得力助手小邓(黄光亮)已被恐怖分子收买,李督察与域拿落入了恐怖组织手中,在危急关头,他们两人如何救己救人?

  1. ##### MediaInfo ######

  2. General

  3. Unique ID : 6960406295770594190876221550142758753 (0x53C86869439786DBA7A5F9F66451F61)

  4. Complete name : Undeclared.War.1990.1080p.BluRay.DD5.1.2Audio.x265-10bit-ENTHD.mkv

  5. Format : Matroska

  6. Format version : Version 4

  7. File size : 8.61 GiB

  8. Duration : 1 h 46 min

  9. Overall bit rate : 11.6 Mb/s

  10. Movie name : Undeclared War 1990 1080p BluRay DD5.1 2Audio x265-10bit-HDS

  11. Encoded date : UTC 2022-06-04 09:52:15

  12. Writing application : mkvmerge v67.0.0 ('Under Stars') 64-bit

  13. Writing library : libebml v1.4.2 + libmatroska v1.6.4

  14. Video

  15. ID : 1

  16. Format : HEVC

  17. Format/Info : High Efficiency Video Coding

  18. Format profile : Main 10@L5.1@High

  19. Codec ID : V_MPEGH/ISO/HEVC

  20. Duration : 1 h 46 min

  21. Bit rate : 10.3 Mb/s

  22. Width : 1 920 pixels

  23. Height : 820 pixels

  24. Display aspect ratio : 2.35:1

  25. Frame rate mode : Constant

  26. Frame rate : 24.000 FPS

  27. Color space : YUV

  28. Chroma subsampling : 4:2:0

  29. Bit depth : 10 bits

  30. Bits/(Pixel*Frame) : 0.272

  31. Stream size : 7.64 GiB (89%)

  32. Title : bojack@HDSky

  33. Writing library : x265 - H.265/HEVC codec

  34. Default : Yes

  35. Forced : No

  36. Audio #1

  37. ID : 2

  38. Format : AC-3

  39. Format/Info : Audio Coding 3

  40. Commercial name : Dolby Digital

  41. Codec ID : A_AC3

  42. Duration : 1 h 46 min

  43. Bit rate mode : Constant

  44. Bit rate : 640 kb/s

  45. Channel(s) : 6 channels

  46. Channel layout : L R C LFE Ls Rs

  47. Sampling rate : 48.0 kHz

  48. Frame rate : 31.250 FPS (1536 SPF)

  49. Compression mode : Lossy

  50. Stream size : 488 MiB (6%)

  51. Title : Cantonese

  52. Language : Chinese

  53. Service kind : Complete Main

  54. Default : Yes

  55. Forced : No

  56. Audio #2

  57. ID : 3

  58. Format : AC-3

  59. Format/Info : Audio Coding 3

  60. Commercial name : Dolby Digital

  61. Codec ID : A_AC3

  62. Duration : 1 h 46 min

  63. Bit rate mode : Constant

  64. Bit rate : 640 kb/s

  65. Channel(s) : 6 channels

  66. Channel layout : L R C LFE Ls Rs

  67. Sampling rate : 48.0 kHz

  68. Frame rate : 31.250 FPS (1536 SPF)

  69. Compression mode : Lossy

  70. Stream size : 488 MiB (6%)

  71. Title : Mandarin

  72. Language : Chinese

  73. Service kind : Complete Main

  74. Default : Yes

  75. Forced : No

  76. Text #1

  77. ID : 4

  78. Format : PGS

  79. Muxing mode : zlib

  80. Codec ID : S_HDMV/PGS

  81. Codec ID/Info : Picture based subtitle format used on BDs/HD-DVDs

  82. Duration : 1 h 43 min

  83. Bit rate : 20.7 kb/s

  84. Count of elements : 1962

  85. Stream size : 15.3 MiB (0%)

  86. Title : CHT

  87. Language : Chinese

  88. Default : Yes

  89. Forced : No

  90. Text #2

  91. ID : 5

  92. Format : PGS

  93. Muxing mode : zlib

  94. Codec ID : S_HDMV/PGS

  95. Codec ID/Info : Picture based subtitle format used on BDs/HD-DVDs

  96. Duration : 1 h 43 min

  97. Bit rate : 19.3 kb/s

  98. Count of elements : 1962

  99. Stream size : 14.2 MiB (0%)

  100. Title : CHS

  101. Language : Chinese

  102. Default : Yes

  103. Forced : No

  104. Text #3

  105. ID : 6

  106. Format : PGS

  107. Muxing mode : zlib

  108. Codec ID : S_HDMV/PGS

  109. Codec ID/Info : Picture based subtitle format used on BDs/HD-DVDs

  110. Duration : 1 h 43 min

  111. Bit rate : 23.5 kb/s

  112. Count of elements : 1962

  113. Stream size : 17.3 MiB (0%)

  114. Title : ENG

  115. Language : English

  116. Default : Yes

  117. Forced : No

  118. Menu

  119. 00:00:00.000 : en:第 01 章

  120. 00:09:44.125 : en:第 02 章

  121. 00:20:06.292 : en:第 03 章

  122. 00:29:23.250 : en:第 04 章

  123. 00:34:39.583 : en:第 05 章

  124. 00:41:26.500 : en:第 06 章

  125. 00:51:32.125 : en:第 07 章

  126. 00:59:34.333 : en:第 08 章

  127. 01:08:58.333 : en:第 09 章

  128. 01:15:46.417 : en:第 10 章

  129. 01:25:04.250 : en:第 11 章

  130. 01:37:08.750 : en:第 12 章


TAGS 动作 惊悚 犯罪 /

磁力链:
  • magnet:?xt=urn:btih:03BEC13F71695AE9DD4A5E0D684452F1C046EB00
上传的附件:
BT9527电影天堂 1、BT9527电影天堂提供的BT文件均来源于互联网抓取,只供网友学习交流、技术提升使用。
2、我们遵守BitTorrent点对点协议原则,任何版权问题请联系原资源发布商,我们不处理任何版权纠纷,谢谢!如有争议请联系邮箱:BT9527#hotmail.com(#换成@)
3、如果您发现某页面或地址有错误,请联系站长邮箱BT9527#hotmail.com(#换成@),我们会尽快处理。您的热心是对BT9527电影天堂最大的支持。
4、本站建议去正规影院观看电影以支持电影行业发展。
最新回复 (0)

你可以在 登录 or 注册 后,对此帖发表评论!

返回
发新帖