大菩萨岭[简繁英字幕].The.Sword.of.Doom.1966.CC.BluRay.1080p.DTS-HD.MA1.0.x265.10bit-ALT 12.04GB

版主小s 29天前 220

◎译 名 大菩萨岭 / The Sword of Doom

◎片 名 大菩薩峠

◎年 代 1966

◎产 地 日本

◎类 别 剧情 / 动作

◎语 言 日语

◎上映日期 1966-02-25(日本)

◎IMDb链接 https://www.imdb.com/title/tt0060277/

◎豆瓣评分 8.6/10 (11545人评价)

◎豆瓣链接 https://movie.douban.com/subject/1440164/

◎片 长 120分钟

◎导 演 冈本喜八 Kihachi Okamoto (id:1005465)

◎编 剧 桥本忍 Shinobu Hashimoto (id:1094656)

中里介山 Kaizan Nakazato (id:1002534)

◎演 员 仲代达矢 Tatsuya Nakadai (id:1036950)

新珠三千代 Michiyo Aratama (id:1016999)

加山雄三 Y?z? Kayama (id:1110897)

内藤洋子 Naito Yoko (id:1313868)

中丸忠雄 Nakamaru Tadao (id:1326116)

佐藤庆 Kei Sat? (id:1138588)

西村晃 K? Nishimura (id:1008337)

中谷一郎 Ichir? Nakatani (id:1097887)

田中邦卫 Kunie Tanaka (id:1040946)

三船敏郎 Toshir? Mifune (id:1056027)

香川良介 Ry?suke Kagawa (id:1030662)

藤原釜足 Kamatari Fujiwara (id:1016877)

天本英世 Eisei Amamoto (id:1016944)

小川安三 Yasuz? Ogawa (id:1127592)

川口敦子 Atsuko Kawaguchi (id:1053973)

大木正司 Sh?ji ?ki (id:1136593)

长谷川弘 Hiroshi Hasegawa (id:1015610)

头师孝雄 Takao Zushi (id:1013380)

田中浩 Hiroshi Tanaka (id:1015678)

高松锦之助 Kinnosuke Takamatsu (id:1349556)

佐佐木孝丸 Takamaru Sasaki (id:1008504)

伊吹彻 T?ru Ibuki (id:1112054)

久世龙 Ry? Kuze (id:1108447)

藤本真澄 Sanezumi Fujimoto (id:1010490)

佐藤胜 Masaru Sat? (id:1054483)

山崎淳 Jun Yamazaki (id:1408411)

松山崇 Takashi Matsuyama (id:1125021)

山本迪夫 Michio Yamamoto (id:1011518)

◎简 介

幕末时期,时局动荡,暗流涌动。甲州武士机龙之助(仲代達矢 饰)剑术绝伦,却拥有一颗邪恶阴暗之心。在一次剑术比赛前夕,对手宇津木文之丞(中谷一郎 饰)的妻子阿滨(新珠三千代 饰)恳求他败给丈夫,甚至不惜委身于他。然而在次日的对决中,龙之助仍然以绝对优势杀死文之丞。在此之后 ,他和被休的阿滨离开甲州,浪迹江湖。两年后,他以杀手身份加入新选组,替幕府斩杀反抗义士。在此期间,文之丞弟弟兵马(加山雄三 饰)也来至江户,并拜入剑豪岛田虎之助(三船敏郎 饰)的门下,等待为兄长报仇的良机。宿命的相逢无可避免……

本片根据中里介山同名原著中“甲源一刀流の巻 - 03 壬生と島原の巻”部分改编。该小说在报纸上连载23年,被称作“世界上最长的历史小说”。

  1. ##### MediaInfo ######

  2. General

  3. Unique ID : 119337145254064141648815830619019467200 (0x59C77F86E7E26A8847B2987A26CAD9C0)

  4. Complete name : The.Sword.of.Doom.1966.CC.BluRay.1080p.DTS-HD.MA1.0.x265.10bit-ALT.mkv

  5. Format : Matroska

  6. Format version : Version 4

  7. File size : 12.0 GiB

  8. Duration : 2 h 0 min

  9. Overall bit rate mode : Variable

  10. Overall bit rate : 14.3 Mb/s

  11. Encoded date : UTC 2022-06-04 09:26:05

  12. Writing application : mkvmerge v49.0.0 ('Sick Of Losing Soulmates') 64-bit

  13. Writing library : libebml v1.4.0 + libmatroska v1.6.1

  14. Video

  15. ID : 1

  16. Format : HEVC

  17. Format/Info : High Efficiency Video Coding

  18. Format profile : Main 10@L5.1@High

  19. Codec ID : V_MPEGH/ISO/HEVC

  20. Duration : 2 h 0 min

  21. Bit rate : 13.5 Mb/s

  22. Width : 1 920 pixels

  23. Height : 818 pixels

  24. Display aspect ratio : 2.35:1

  25. Frame rate mode : Constant

  26. Frame rate : 23.976 (24000/1001/53354) FPS

  27. Color space : YUV

  28. Chroma subsampling : 4:2:0

  29. Bit depth : 10 bits

  30. Bits/(Pixel*Frame) : 0.358

  31. Stream size : 11.3 GiB (94%)

  32. Title : HEVC, x265Main10@L5.1@High, 24/1.001 fps @ 13479 kbps

  33. Writing library : x265 3.5+36-1f2c8da77:[Windows][GCC 11.2.0][64 bit] 10bit

  34. Encoding settings : cpuid=533541111039 / frame-threads=4 / numa-pools=16 / wpp / no-pmode / no-pme / no-psnr / no-ssim / log-level=2 / input-csp=1 / input-res=1920x818 / interlace=0 / total-frames=173340 / level-idc=51 / high-tier=1 / uhd-bd=0 / ref=5 / no-allow-non-conformance / no-repeat-headers / annexb / no-aud / no-eob / no-eos / no-hrd / info / hash=0 / no-temporal-layers / open-gop / min-keyint=24 / keyint=240 / gop-lookahead=0 / bframes=6 / b-adapt=2 / b-pyramid / bframe-bias=0 / rc-lookahead=40 / lookahead-slices=0 / NTMzNTQ=uuDQuD2mJt9fsCf / scenecut=40 / no-hist-scenecut / radl=0 / no-splice / no-intra-refresh / ctu=32 / min-cu-size=8 / no-rect / no-amp / max-tu-size=32 / tu-inter-depth=3 / tu-intra-depth=3 / limit-tu=4 / rdoq-level=2 / dynamic-rd=0.00 / no-ssim-rd / signhide / no-tskip / nr-intra=0 / nr-inter=0 / no-constrained-intra / no-strong-intra-smoothing / max-merge=4 / limit-refs=1 / limit-modes / me=3 / subme=4 / merange=25 / temporal-mvp / no-frame-dup / no-hme / weightp / weightb / no-analyze-src-pics / deblock=-3:-3 / no-sao / no-sao-non-deblock / rd=6 / selective-sao=0 / no-early-skip / rskip / no-fast-intra / no-tskip-fast / no-cu-lossless / b-intra / no-splitrd-skip / rdpenalty=0 / psy-rd=2.00 / psy-rdoq=1.00 / no-rd-refine / no-lossless / cbqpoffs=-2 / crqpoffs=-2 / rc=crf / crf=20.5 / qcomp=0.65 / qpstep=4 / stats-write=0 / stats-read=0 / vbv-maxrate=80000 / vbv-bufsize=80000 / vbv-init=0.9 / min-vbv-fullness=50.0 / max-vbv-fullness=80.0 / crf-max=0.0 / crf-min=0.0 / ipratio=1.40 / pbratio=1.30 / aq-mode=2 / aq-strength=0.85 / cutree / zone-count=0 / no-strict-cbr / qg-size=32 / no-rc-grain / qpmax=69 / qpmin=0 / no-const-vbv / sar=1 / overscan=0 / videoformat=5 / range=0 / colorprim=1 / transfer=1 / colormatrix=1 / chromaloc=0 / display-window=0 / cll=0,0 / min-luma=0 / max-luma=1023 / log2-max-poc-lsb=8 / vui-timing-info / vui-hrd-info / slices=1 / no-opt-qp-pps / no-opt-ref-list-length-pps / no-multi-pass-opt-rps / scenecut-bias=0.05 / hist-threshold=0.03 / no-opt-cu-delta-qp / no-aq-motion / no-hdr10 / no-hdr10-opt / no-dhdr10-opt / no-idr-recovery-sei / analysis-reuse-level=0 / analysis-save-reuse-level=0 / analysis-load-reuse-level=0 / scale-factor=0 / refine-intra=0 / refine-inter=0 / refine-mv=1 / refine-ctu-distortion=0 / no-limit-sao / ctu-info=0 / no-lowpass-dct / refine-analysis-type=0 / copy-pic=1 / max-ausize-factor=1.0 / no-dynamic-refine / no-single-sei / no-hevc-aq / no-svt / no-field / qp-adaptation-range=1.00 / scenecut-aware-qp=0conformance-window-offsets / right=0 / bottom=0 / NTMzNTQ= / decoder-max-rate=0 / no-vbv-live-multi-pass

  35. Language : English

  36. Default : Yes

  37. Forced : No

  38. Color range : Limited

  39. Color primaries : BT.709

  40. Transfer characteristics : BT.709

  41. Matrix coefficients : BT.709

  42. Audio

  43. ID : 2

  44. Format : DTS XLL

  45. Format/Info : Digital Theater Systems

  46. Commercial name : DTS-HD Master Audio

  47. Codec ID : A_DTS

  48. Duration : 2 h 0 min

  49. Bit rate mode : Variable

  50. Bit rate : 750 kb/s

  51. Channel(s) : 1 channel

  52. Channel layout : C

  53. Sampling rate : 48.0 kHz

  54. Frame rate : 93.750 FPS (512 SPF)

  55. Bit depth : 24 bits

  56. Compression mode : Lossless

  57. Stream size : 646 MiB (5%)

  58. Title : Japanese DTS-HD Master Audio 1.0 @ 751 kbps

  59. Language : Japanese

  60. Default : Yes

  61. Forced : No

  62. Text #1

  63. ID : 3

  64. Format : PGS

  65. Codec ID : S_HDMV/PGS

  66. Codec ID/Info : Picture based subtitle format used on BDs/HD-DVDs

  67. Duration : 2 h 0 min

  68. Bit rate : 31.3 kb/s

  69. Count of elements : 2234

  70. Stream size : 26.8 MiB (0%)

  71. Title : Eng/SUP

  72. Language : English

  73. Default : No

  74. Forced : No

  75. Text #2

  76. ID : 4

  77. Format : PGS

  78. Codec ID : S_HDMV/PGS

  79. Codec ID/Info : Picture based subtitle format used on BDs/HD-DVDs

  80. Duration : 1 h 54 min

  81. Bit rate : 19.3 kb/s

  82. Count of elements : 2204

  83. Stream size : 15.9 MiB (0%)

  84. Title : Chs/SUP 简体

  85. Language : Chinese

  86. Default : Yes

  87. Forced : No

  88. Text #3

  89. ID : 5

  90. Format : PGS

  91. Codec ID : S_HDMV/PGS

  92. Codec ID/Info : Picture based subtitle format used on BDs/HD-DVDs

  93. Duration : 1 h 54 min

  94. Bit rate : 20.0 kb/s

  95. Count of elements : 2204

  96. Stream size : 16.4 MiB (0%)

  97. Title : Cht/SUP 繁体

  98. Language : Chinese

  99. Default : No

  100. Forced : No

  101. Menu

  102. 00:00:00.000 : en:绗?01 绔?

  103. 00:01:48.400 : en:绗?02 绔?

  104. 00:06:42.319 : en:绗?03 绔?

  105. 00:09:31.070 : en:绗?04 绔?

  106. 00:18:00.329 : en:绗?05 绔?

  107. 00:21:07.516 : en:绗?06 绔?

  108. 00:27:03.163 : en:绗?07 绔?

  109. 00:30:16.898 : en:绗?08 绔?

  110. 00:36:18.635 : en:绗?09 绔?

  111. 00:42:59.744 : en:绗?10 绔?

  112. 00:49:03.482 : en:绗?11 绔?

  113. 00:53:35.212 : en:绗?12 绔?

  114. 00:58:07.943 : en:绗?13 绔?

  115. 01:02:01.676 : en:绗?14 绔?

  116. 01:05:27.590 : en:绗?15 绔?

  117. 01:12:16.958 : en:绗?16 绔?

  118. 01:19:24.343 : en:绗?17 绔?

  119. 01:25:56.860 : en:绗?18 绔?

  120. 01:30:54.532 : en:绗?19 绔?

  121. 01:36:00.880 : en:绗?20 绔?

  122. 01:43:42.007 : en:绗?21 绔?

  123. 01:50:16.235 : en:绗?22 绔?

  124. 01:54:18.477 : en:绗?23 绔?


TAGS 动作 剧情 /

磁力链:
  • magnet:?xt=urn:btih:CC59BA585EE9261443CF9056C2BC2577CD1CE9A0
上传的附件:
BT9527电影天堂 1、BT9527电影天堂提供的BT文件均来源于互联网抓取,只供网友学习交流、技术提升使用。
2、我们遵守BitTorrent点对点协议原则,任何版权问题请联系原资源发布商,我们不处理任何版权纠纷,谢谢!如有争议请联系邮箱:BT9527#hotmail.com(#换成@)
3、如果您发现某页面或地址有错误,请联系站长邮箱BT9527#hotmail.com(#换成@),我们会尽快处理。您的热心是对BT9527电影天堂最大的支持。
4、本站建议去正规影院观看电影以支持电影行业发展。
最新回复 (0)

你可以在 登录 or 注册 后,对此帖发表评论!

返回
发新帖