实尾岛[简繁字幕].Silmido.2003.1080p.BluRay.DTS.x265-10bit-ENTHD 9.79GB

版主小s 4月前 464

◎译 名 实尾岛 / 实尾岛风云 / Silmido / 宝尾岛

◎片 名 ???

◎年 代 2003

◎产 地 韩国

◎类 别 剧情 / 动作

◎语 言 韩语

◎上映日期 2003-12-24

◎IMDb链接 https://www.imdb.com/title/tt0387596/

◎豆瓣评分 8.1/10 (35756人评价)

◎豆瓣链接 https://movie.douban.com/subject/1389982/

◎片 长 135 分钟

◎导 演 康佑硕 Woo-Suk Kang (id:1042269)

◎编 剧 金希才 Hie-jae Kim (id:1305684)

◎演 员 薛景求 Kyung-gu Sol (id:1045576)

安圣基 Sung-kee Ahn (id:1058705)

许峻豪 Jun-ho Heo (id:1287129)

郑在咏 Jae-yeong Jeong (id:1041961)

姜声振 Seong-jin Kang (id:1015331)

姜信日 Shin-il Kang (id:1331150)

郑柔美 Yu-mi Jeong (id:1275329)

金康宇 Kang-woo Kim (id:1193404)

林元熙 Won-hie Lim (id:1029525)

金亨宗 Hyeong-jong Kim (id:1382080)

崔英 Choi Yeong (id:1381294)

朴胜泰 Seung-tae Park (id:1383979)

赵敏俊 Min-joon Jo (id:1386375)

李相洪 Sang-hong Lee (id:1387366)

朴镇洙 Park Jin-soo (id:1387466)

元雄宰 Won Woong-jae (id:1387809)

玄哲浩 Cheol-ho Hyeon (id:1423895)

朴闵英 Min-young Park (id:1448424)

李政宪 Jeong-heon Lee (id:1340814)

赵在莞 Jae-wan Jo (id:1375774)

严泰雄 Tae-woong Eom (id:1275570)

朴相赫 Sang-hyeok Park (id:1455866)

康佑硕 Woo-Suk Kang (id:1042269)

金成福 Sung-Bok Kim (id:1452407)

李庸基 Yong-Gi Lee (id:1314650)

◎简 介

60年代末朝鲜半岛南北局势紧张,双方都展开了疯狂的间谍与刺杀行动。1968年1月,康仁灿(薛景求饰)因谋杀罪名成立而被判死刑的,在行刑前突然被召到拘留室,与特种部队军官讨论替代死刑的条件,他将被送到西南部荒岛实尾岛接受特别军事训练。同时,另外30名死囚也接受了特种部队军官的条件,被征召到实尾岛执行特别任务。

这31名死囚乘坐渔船到达实尾岛后,便在上级崔在贤中尉(安圣基饰)宣布下,组成了以刺杀朝鲜元首金日成为目标的“684北派部队”,并随即接受一连串地狱式的体能和军事训练。

可是在三年后,由于韩国政府国策的改变,“684北派部队”的计划被取消,31名队员则前途未卜。他们纷感被国家出卖,只能设法自救……

  1. ##### MediaInfo ######

  2. General

  3. Unique ID : 68381370964674758172617046107354600259 (0x3371C5E330EF7CC88F28826DFDD89343)

  4. Complete name : Silmido.2003.1080p.BluRay.DTS.x265-10bit-ENTHD.mkv

  5. Format : Matroska

  6. Format version : Version 4

  7. File size : 9.79 GiB

  8. Duration : 2 h 15 min

  9. Overall bit rate : 10.4 Mb/s

  10. Movie name : Silmido 2003 1080p BluRay DTS x265-10bit-HDS

  11. Encoded date : UTC 2022-06-04 00:27:31

  12. Writing application : mkvmerge v67.0.0 ('Under Stars') 64-bit

  13. Writing library : libebml v1.4.2 + libmatroska v1.6.4

  14. Video

  15. ID : 1

  16. Format : HEVC

  17. Format/Info : High Efficiency Video Coding

  18. Format profile : Main 10@L5.1@High

  19. Codec ID : V_MPEGH/ISO/HEVC

  20. Duration : 2 h 15 min

  21. Bit rate : 8 832 kb/s

  22. Width : 1 920 pixels

  23. Height : 804 pixels

  24. Display aspect ratio : 2.40:1

  25. Frame rate mode : Constant

  26. Frame rate : 23.976 (24000/1001/53354) FPS

  27. Color space : YUV

  28. Chroma subsampling : 4:2:0

  29. Bit depth : 10 bits

  30. Bits/(Pixel*Frame) : 0.239

  31. Stream size : 8.33 GiB (85%)

  32. Title : cofunlau@HDSky

  33. Writing library : x265 - H.265/HEVC codec

  34. Default : Yes

  35. Forced : No

  36. Audio

  37. ID : 2

  38. Format : DTS

  39. Format/Info : Digital Theater Systems

  40. Codec ID : A_DTS

  41. Duration : 2 h 15 min

  42. Bit rate mode : Constant

  43. Bit rate : 1 509 kb/s

  44. Channel(s) : 6 channels

  45. Channel layout : C L R Ls Rs LFE

  46. Sampling rate : 48.0 kHz

  47. Frame rate : 93.750 FPS (512 SPF)

  48. Bit depth : 24 bits

  49. Compression mode : Lossy

  50. Stream size : 1.42 GiB (15%)

  51. Title : Korean

  52. Language : Korean

  53. Default : Yes

  54. Forced : No

  55. Text #1

  56. ID : 3

  57. Format : PGS

  58. Muxing mode : zlib

  59. Codec ID : S_HDMV/PGS

  60. Codec ID/Info : Picture based subtitle format used on BDs/HD-DVDs

  61. Duration : 2 h 12 min

  62. Bit rate : 33.2 kb/s

  63. Count of elements : 2780

  64. Stream size : 31.5 MiB (0%)

  65. Title : CHS

  66. Language : Chinese

  67. Default : Yes

  68. Forced : No

  69. Text #2

  70. ID : 4

  71. Format : PGS

  72. Muxing mode : zlib

  73. Codec ID : S_HDMV/PGS

  74. Codec ID/Info : Picture based subtitle format used on BDs/HD-DVDs

  75. Duration : 2 h 12 min

  76. Bit rate : 34.6 kb/s

  77. Count of elements : 2780

  78. Stream size : 32.8 MiB (0%)

  79. Title : CHT

  80. Language : Chinese

  81. Default : Yes

  82. Forced : No

  83. Menu

  84. 00:00:00.000 : en:第 01 章

  85. 00:17:11.656 : en:第 02 章

  86. 00:35:59.616 : en:第 03 章

  87. 00:56:36.393 : en:第 04 章

  88. 01:16:32.797 : en:第 05 章

  89. 01:29:28.405 : en:第 06 章

  90. 01:53:37.853 : en:第 07 章

  91. 02:10:35.119 : en:第 08 章


复制代码


TAGS 动作 剧情 /

磁力链:
  • magnet:?xt=urn:btih:9A9CDA336D9ACE4B55B52C73509CFB99967FA360
上传的附件:
BT9527电影天堂 1、BT9527电影天堂提供的BT文件均来源于互联网抓取,只供网友学习交流、技术提升使用。
2、我们遵守BitTorrent点对点协议原则,任何版权问题请联系原资源发布商,我们不处理任何版权纠纷,谢谢!如有争议请联系邮箱:BT9527#hotmail.com(#换成@)
3、如果您发现某页面或地址有错误,请联系站长邮箱BT9527#hotmail.com(#换成@),我们会尽快处理。您的热心是对BT9527电影天堂最大的支持。
4、本站建议去正规影院观看电影以支持电影行业发展。
最新回复 (0)

你可以在 登录 or 注册 后,对此帖发表评论!

返回
发新帖