渔港的肉子酱[简繁字幕].Fortune.Favors.Lady.Nikuko.2021.1080p.BluRay.x265.10bit.DTS-HomeHD 3.51GB

版主小s 20天前 107

◎译 名 渔港的肉子酱 / 渔港的肉子 / Fortune Favors Lady Nikuko

◎片 名 漁港の肉子ちゃん

◎年 代 2021

◎产 地 日本

◎类 别 动画

◎语 言 日语

◎上映日期 2021-06-11(日本)

◎IMDb链接 https://www.imdb.com/title/tt13758684/

◎豆瓣评分 8.1/10 (6478人评价)

◎豆瓣链接 https://movie.douban.com/subject/35307624/

◎片 长 97分钟

◎导 演 渡边步 Ayumu Watanabe (id:1317548)

◎编 剧 西加奈子 Kanako Nishi (id:1333026)

大岛里美 Satomi Oshima (id:1275923)

◎演 员 大竹忍 Shinobu ?take (id:1129062)

木村心美 Cocomi Kimura (id:1454148)

花江夏树 Natsuki Hanae (id:1323704)

吉冈里帆 Riho Yoshioka (id:1348382)

松子DELUXE Matsuko Deluxe (id:1330494)

石井泉 Izumi Ishii (id:1471662)

中村育二 Ikuji Nakamura (id:1039341)

山西惇 Atsushi Yamanishi (id:1353174)

八十田勇一 Y?ichi Yasoda (id:1431511)

明石家秋刀鱼 Sanma Akashiya (id:1011565)

村松崇継 Takatsugu Muramatsu (id:1345774)

◎简 介

明石家秋刀鱼首度企画动画电影作品!改编西加柰子原作小说,STUDIO4℃制作的动画电影《渔港的肉子酱》将于今年初夏公映!

故事围绕着生活在渔港的“肉子酱”母女的成长展开。《海兽之子》导演渡边步执导,小西贤一担任作画导演,剧本则由《凪的新生活》的大岛里美担当。

◎获奖情况 (共2项)

第45届日本电影学院奖 (2022)

最佳动画片(提名)

第49届动画安妮奖 (2022)

最佳独立动画长片(提名)

  1. ##### MediaInfo ######

  2. General

  3. Unique ID : 85037896442744369760534495968306951019 (0x3FF9B3FF7462388BD68C7135A250736B)

  4. Complete name : Fortune.Favors.Lady.Nikuko.2021.1080p.BluRay.x265.10bit.DTS-HomeHD.mkv

  5. Format : Matroska

  6. Format version : Version 4

  7. File size : 3.51 GiB

  8. Duration : 1 h 36 min

  9. Overall bit rate : 5 220 kb/s

  10. Movie name : Fortune Favors Lady Nikuko

  11. Encoded date : UTC 2022-06-04 12:04:01

  12. Writing application : mkvmerge v68.0.0 ('The Curtain') 64-bit

  13. Writing library : libebml v1.4.2 + libmatroska v1.6.4

  14. Attachments : FangZhengKaiTi-GBK-1.ttf / 华康华综体.ttf

  15. Video

  16. ID : 1

  17. Format : HEVC

  18. Format/Info : High Efficiency Video Coding

  19. Format profile : Main 10@L4@Main

  20. Codec ID : V_MPEGH/ISO/HEVC

  21. Duration : 1 h 36 min

  22. Bit rate : 3 682 kb/s

  23. Width : 1 920 pixels

  24. Height : 804 pixels

  25. Display aspect ratio : 2.40:1

  26. Frame rate mode : Constant

  27. Frame rate : 24.000 FPS

  28. Color space : YUV

  29. Chroma subsampling : 4:2:0

  30. Bit depth : 10 bits

  31. Bits/(Pixel*Frame) : 0.099

  32. Stream size : 2.48 GiB (71%)

  33. Title : Jubowo @ WiKi

  34. Language : Japanese

  35. Default : Yes

  36. Forced : No

  37. Audio

  38. ID : 2

  39. Format : DTS

  40. Format/Info : Digital Theater Systems

  41. Codec ID : A_DTS

  42. Duration : 1 h 36 min

  43. Bit rate mode : Constant

  44. Bit rate : 1 509 kb/s

  45. Channel(s) : 6 channels

  46. Channel layout : C L R Ls Rs LFE

  47. Sampling rate : 48.0 kHz

  48. Frame rate : 93.750 FPS (512 SPF)

  49. Bit depth : 16 bits

  50. Compression mode : Lossy

  51. Stream size : 1.01 GiB (29%)

  52. Language : Japanese

  53. Default : Yes

  54. Forced : No

  55. Text #1

  56. ID : 3

  57. Format : ASS

  58. Codec ID : S_TEXT/ASS

  59. Codec ID/Info : Advanced Sub Station Alpha

  60. Duration : 1 h 35 min

  61. Bit rate : 92 b/s

  62. Count of elements : 1426

  63. Compression mode : Lossless

  64. Stream size : 65.0 KiB (0%)

  65. Title : 简体

  66. Language : Chinese

  67. Default : Yes

  68. Forced : No

  69. Text #2

  70. ID : 4

  71. Format : ASS

  72. Codec ID : S_TEXT/ASS

  73. Codec ID/Info : Advanced Sub Station Alpha

  74. Duration : 1 h 35 min

  75. Bit rate : 92 b/s

  76. Count of elements : 1426

  77. Compression mode : Lossless

  78. Stream size : 65.0 KiB (0%)

  79. Title : 繁體

  80. Language : Chinese

  81. Default : Yes

  82. Forced : No

  83. Menu

  84. 00:00:00.000 : en:Chapter 01

  85. 00:05:38.000 : en:Chapter 02

  86. 00:05:54.500 : en:Chapter 03

  87. 00:10:48.833 : en:Chapter 04

  88. 00:16:44.250 : en:Chapter 05

  89. 00:21:37.417 : en:Chapter 06

  90. 00:31:09.083 : en:Chapter 07

  91. 00:37:40.542 : en:Chapter 08

  92. 00:41:04.042 : en:Chapter 09

  93. 00:50:43.458 : en:Chapter 10

  94. 00:57:09.333 : en:Chapter 11

  95. 01:04:32.500 : en:Chapter 12

  96. 01:06:30.875 : en:Chapter 13

  97. 01:11:17.667 : en:Chapter 14

  98. 01:15:12.000 : en:Chapter 15

  99. 01:18:57.167 : en:Chapter 16

  100. 01:27:26.833 : en:Chapter 17

  101. 01:30:33.875 : en:Chapter 18

  102. 01:32:02.750 : en:Chapter 19

  103. 01:36:14.000 : en:Chapter 20


TAGS 动画

磁力链:
  • magnet:?xt=urn:btih:E629C9248290DF07A94FF8CE794BDD7ED8BB536E
上传的附件:
BT9527电影天堂 1、BT9527电影天堂提供的BT文件均来源于互联网抓取,只供网友学习交流、技术提升使用。
2、我们遵守BitTorrent点对点协议原则,任何版权问题请联系原资源发布商,我们不处理任何版权纠纷,谢谢!如有争议请联系邮箱:BT9527#hotmail.com(#换成@)
3、如果您发现某页面或地址有错误,请联系站长邮箱BT9527#hotmail.com(#换成@),我们会尽快处理。您的热心是对BT9527电影天堂最大的支持。
4、本站建议去正规影院观看电影以支持电影行业发展。
最新回复 (0)

你可以在 登录 or 注册 后,对此帖发表评论!

返回
发新帖