健听女孩[中文字幕].CODA.2021.Bluray.2160p.DTS-HDMA.5.1.HDR.x265.10bit-CTRLHD 19.00GB

版主小s 29天前 151

◎译 名 健听女孩 / 乐动心旋律(台) / 贝利叶一家 美国版 / 心之旋律 / 终曲 / Children of Deaf Adults

◎片 名 CODA

◎年 代 2021

◎产 地 美国 / 法国 / 加拿大

◎类 别 剧情 / 音乐

◎语 言 美国手语 / 英语

◎上映日期 2021-01-29(圣丹斯电影节)

◎IMDb链接 https://www.imdb.com/title/tt10366460/

◎豆瓣评分 8.6/10 (98181人评价)

◎豆瓣链接 https://movie.douban.com/subject/35048413/

◎片 长 111分钟

◎导 演 夏安·海德 Sian Heder (id:1219962)

◎编 剧 夏安·海德 Sian Heder (id:1219962)

维多利亚·贝多斯 Victoria Bedos (id:1461418)

斯坦尼斯拉斯·卡雷·德·马尔博格 Stanislas Carré de Malberg (id:1076868)

艾里克·拉缇戈 Eric Lartigau (id:1313896)

托马斯·彼得葛恩 Thomas Bidegain (id:1320175)

◎演 员 艾米莉亚·琼斯 Emilia Jones (id:1318340)

特洛伊·科特苏尔 Troy Kotsur (id:1460937)

玛丽·玛特琳 Marlee Matlin (id:1049675)

丹尼尔·杜兰特 Daniel Durant (id:1460919)

欧赫尼奥·德尔维斯 Eugenio Derbez (id:1050224)

福迪亚·瓦尔什-匹罗 Ferdia Walsh-Peelo (id:1357404)

艾米·福赛思 Amy Forsyth (id:1356992)

凯文·查普曼 Kevin Chapman (id:1280483)

约翰·菲奥里 John Fiore (id:1283759)

朗尼·法默 Lonnie Farmer (id:1454177)

科特兰·琼斯 Courtland Jones (id:1469360)

莫莉·贝丝·托马斯 Molly Beth Thomas (id:1469361)

阿雅娜·布朗 Ayana Brown (id:1469362)

杰森·普加奇 Jason Pugatch (id:1469363)

基亚娜·法内 Kyana Fanene (id:1469364)

安尼莉·利斯特 Anilee List (id:1469365)

史蒂芬·卡利斯坎 Stephen Caliskan (id:1460938)

何塞·冈斯·阿尔维斯 Jose Guns Alves (id:1446090)

欧文·伯克 Owen Burke (id:1387221)

梅利莎·麦克米金 Melissa McMeekin (id:1273144)

埃里卡·麦克德莫特 Erica McDermott (id:1272004)

玛丽·安·绍布 Mary Ann Schaub (id:1468811)

莎拉·克拉克 Sarah Clarke (id:1004630)

大卫·纽森 David Newsom (id:1129597)

大卫·布肯德尔 David Bookbinder (id:1231328)

理查德·钱德勒 Richard Chandler (id:1052519)

罗布·勒维克 Rob Lévesque (id:1468812)

琪拉·皮查多 Kiara Pichardo (id:1416808)

斯通·马汀 Stone Martin (id:1470022)

菲利普·胡瑟莱 Philippe Rousselet (id:1467916)

法布里斯·吉安费米 Fabrice Gianfermi (id:1467917)

帕特里克·瓦克斯伯格 Patrick Wachsberger (id:1467918)

马里乌斯·代·弗里斯 Marius De Vries (id:1276426)

杰里米·伍尔西 Jeremy Woolsey (id:1046364)

黛安·莱德曼 Diane Lederman (id:1338278)

◎简 介

故事聚焦一个聋哑家庭中唯一有听觉的高中女孩鲁比,她每天都要帮助父母和哥哥操持渔业生意,在加入高中合唱团后,鲁比对歌唱的热爱打动了合唱团长,团长决定让鲁比在梦想和家族之间做一个选择。

◎获奖情况 (共21项)

第94届奥斯卡金像奖 (2022)

最佳影片

最佳男配角

└──特洛伊·科特苏尔 (id:1460937)

最佳改编剧本

└──夏安·海德 (id:1219962)

第79届金球奖 (2022)

电影类 最佳剧情片(提名)

电影类 最佳男配角(提名)

└──特洛伊·科特苏尔 (id:1460937)

第75届英国电影学院奖 (2022)

电影奖 最佳女主角(提名)

└──艾米莉亚·琼斯 (id:1318340)

电影奖 最佳男配角

└──特洛伊·科特苏尔 (id:1460937)

电影奖 最佳改编剧本

第37届圣丹斯电影节 (2021)

评审团大奖 剧情片

└──夏安·海德 (id:1219962)

观众奖 剧情片

└──夏安·海德 (id:1219962)

导演奖 剧情片

└──夏安·海德 (id:1219962)

第28届美国演员工会奖 (2022)

电影奖 最佳男配角

└──特洛伊·科特苏尔 (id:1460937)

电影奖 最佳群戏

第74届美国编剧工会奖 (2022)

电影奖 最佳改编剧本

└──夏安·海德 (id:1219962)

第27届美国评论家选择电影奖 (2022)

最佳影片(提名)

最佳男配角

└──特洛伊·科特苏尔 (id:1460937)

最佳青少年演员(提名)

└──艾米莉亚·琼斯 (id:1318340)

最佳改编剧本(提名)

└──夏安·海德 (id:1219962)

第31届哥谭独立电影奖 (2021)

最佳配角演出

└──特洛伊·科特苏尔 (id:1460937)

最佳配角演出(提名)

└──玛丽·玛特琳 (id:1049675)

年度突破演员

└──艾米莉亚·琼斯 (id:1318340)

  1. ##### MediaInfo ######

  2. General

  3. Unique ID : 183292806110917730022699555319964286545 (0x89E4E90F2FC0431E9F395043870CBE51)

  4. Complete name : CODA.2021.Bluray.2160p.DTS-HDMA.5.1.HDR.x265.10bit-CTRLHD.mkv

  5. Format : Matroska

  6. Format version : Version 4

  7. File size : 19.0 GiB

  8. Duration : 1 h 52 min

  9. Overall bit rate mode : Variable

  10. Overall bit rate : 24.2 Mb/s

  11. Encoded date : UTC 2022-06-05 00:03:56

  12. Writing application : mkvmerge v62.0.0 ('Apollo') 64-bit

  13. Writing library : libebml v1.4.2 + libmatroska v1.6.4

  14. Video

  15. ID : 1

  16. Format : HEVC

  17. Format/Info : High Efficiency Video Coding

  18. Format profile : Main 10@L6@Main

  19. HDR format : SMPTE ST 2086, HDR10 compatible

  20. Codec ID : V_MPEGH/ISO/HEVC

  21. Duration : 1 h 52 min

  22. Bit rate : 20.2 Mb/s

  23. Width : 3 840 pixels

  24. Height : 2 076 pixels

  25. Display aspect ratio : 1.85:1

  26. Frame rate mode : Constant

  27. Frame rate : 23.976 (23976/1000/53354) FPS

  28. Color space : YUV

  29. Chroma subsampling : 4:2:0 (Type 2)

  30. Bit depth : 10 bits

  31. Bits/(Pixel*Frame) : 0.105

  32. Stream size : 15.8 GiB (83%)

  33. Writing library : x265 3.5+10-82786fccc:[Windows][MSVC 1929][64 bit] 10bit

  34. Encoding settings : cpuid=533541111039 / frame-threads=6 / numa-pools=36,36 / wpp / no-pmode / no-pme / no-psnr / no-ssim / log-level=2 / input-csp=1 / input-res=3840x2076 / interlace=0 / total-frames=0 / level-idc=0 / high-tier=1 / uhd-bd=0 / ref=6 / no-allow-non-conformance / repeat-headers / annexb / no-aud / no-eob / no-eos / no-hrd / info / hash=0 / no-temporal-layers / no-open-gop / min-keyint=23 / keyint=250 / gop-lookahead=0 / bframes=14 / b-adapt=2 / b-pyramid / bframe-bias=0 / rc-lookahead=75 / lookahead-slices=8 / NTMzNTQ=uuDQuD2mJt9fsCf / scenecut=40 / hist-scenecut=0 / radl=0 / no-splice / no-intra-refresh / ctu=32 / min-cu-size=8 / no-rect / no-amp / max-tu-size=32 / tu-inter-depth=1 / tu-intra-depth=1 / limit-tu=0 / rdoq-level=0 / dynamic-rd=0.00 / no-ssim-rd / signhide / no-tskip / nr-intra=0 / nr-inter=0 / no-constrained-intra / no-strong-intra-smoothing / max-merge=3 / limit-refs=1 / no-limit-modes / me=3 / subme=7 / merange=64 / temporal-mvp / no-frame-dup / no-hme / weightp / weightb / no-analyze-src-pics / deblock=0:0 / no-sao / no-sao-non-deblock / rd=4 / selective-sao=0 / no-early-skip / rskip / no-fast-intra / no-tskip-fast / no-cu-lossless / b-intra / no-splitrd-skip / rdpenalty=2 / psy-rd=3.00 / psy-rdoq=0.00 / no-rd-refine / no-lossless / cbqpoffs=0 / crqpoffs=0 / rc=crf / crf=16.0 / qcomp=0.60 / qpstep=4 / stats-write=0 / stats-read=0 / ipratio=1.40 / pbratio=1.30 / aq-mode=1 / aq-strength=1.00 / cutree / zone-count=0 / no-strict-cbr / qg-size=32 / no-rc-grain / qpmax=69 / qpmin=0 / no-const-vbv / sar=0 / overscan=0 / videoformat=5 / range=0 / colorprim=9 / transfer=16 / colormatrix=9 / chromaloc=1 / chromaloc-top=2 / chromaloc-bottom=2 / display-window=0 / master-display=G(8500,39850)B(6550,2300)R(35400,14600)WP(15635,16450)L(10000000,1) / cll=813,321 / min-luma=0 / max-luma=1023 / log2-max-poc-lsb=8 / vui-timing-info / vui-hrd-info / slices=1 / no-opt-qp-pps / no-opt-ref-list-length-pps / no-multi-pass-opt-rps / scenecut-bias=0.05 / hist-threshold=0.03 / no-opt-cu-delta-qp / aq-motion / hdr10 / hdr10-opt / no-dhdr10-opt / no-idr-recovery-sei / analysis-reuse-level=0 / analysis-save-reuse-level=0 / analysis-load-reuse-level=0 / scale-factor=0 / refine-intra=0 / refine-inter=0 / refine-mv=1 / refine-ctu-distortion=0 / no-limit-sao / ctu-info=0 / no-lowpass-dct / refine-analysis-type=0 / copy-pic=1 / max-ausize-factor=1.0 / no-dynamic-refine / no-single-sei / no-hevc-aq / no-svt / no-field / qp-adaptation-range=1.00 / scenecut-aware-qp=0conformance-window-offsets / right=0 / bottom=0 / NTMzNTQ= / decoder-max-rate=0 / no-vbv-live-multi-pass

  35. Default : Yes

  36. Forced : No

  37. Color range : Limited

  38. Color primaries : BT.2020

  39. Transfer characteristics : PQ

  40. Matrix coefficients : BT.2020 non-constant

  41. Mastering display color primaries : BT.2020

  42. Mastering display luminance : min: 0.0001 cd/m2, max: 1000 cd/m2

  43. Maximum Content Light Level : 813 cd/m2

  44. Maximum Frame-Average Light Level : 321 cd/m2

  45. Audio

  46. ID : 2

  47. ID in the original source medium : 4352 (0x1100)

  48. Format : DTS XLL

  49. Format/Info : Digital Theater Systems

  50. Commercial name : DTS-HD Master Audio

  51. Codec ID : A_DTS

  52. Duration : 1 h 52 min

  53. Bit rate mode : Variable

  54. Bit rate : 3 966 kb/s

  55. Channel(s) : 6 channels

  56. Channel layout : C L R Ls Rs LFE

  57. Sampling rate : 48.0 kHz

  58. Frame rate : 93.750 FPS (512 SPF)

  59. Bit depth : 24 bits

  60. Compression mode : Lossless

  61. Stream size : 3.11 GiB (16%)

  62. Language : English

  63. Default : Yes

  64. Forced : No

  65. Original source medium : Blu-ray

  66. Text #1

  67. ID : 3

  68. Format : PGS

  69. Muxing mode : zlib

  70. Codec ID : S_HDMV/PGS

  71. Codec ID/Info : Picture based subtitle format used on BDs/HD-DVDs

  72. Duration : 1 h 43 min

  73. Bit rate : 42.1 kb/s

  74. Count of elements : 3825

  75. Stream size : 31.2 MiB (0%)

  76. Language : Chinese

  77. Default : Yes

  78. Forced : No

  79. Text #2

  80. ID : 4

  81. Format : PGS

  82. Muxing mode : zlib

  83. Codec ID : S_HDMV/PGS

  84. Codec ID/Info : Picture based subtitle format used on BDs/HD-DVDs

  85. Duration : 1 h 43 min

  86. Bit rate : 43.8 kb/s

  87. Count of elements : 3826

  88. Stream size : 32.5 MiB (0%)

  89. Language : Chinese

  90. Default : No

  91. Forced : No

  92. Text #3

  93. ID : 5

  94. Format : PGS

  95. Muxing mode : zlib

  96. Codec ID : S_HDMV/PGS

  97. Codec ID/Info : Picture based subtitle format used on BDs/HD-DVDs

  98. Duration : 1 h 44 min

  99. Bit rate : 51.0 kb/s

  100. Count of elements : 3829

  101. Stream size : 38.1 MiB (0%)

  102. Language : Chinese

  103. Default : No

  104. Forced : No

  105. Text #4

  106. ID : 6

  107. Format : PGS

  108. Muxing mode : zlib

  109. Codec ID : S_HDMV/PGS

  110. Codec ID/Info : Picture based subtitle format used on BDs/HD-DVDs

  111. Duration : 1 h 44 min

  112. Bit rate : 52.6 kb/s

  113. Count of elements : 3830

  114. Stream size : 39.3 MiB (0%)

  115. Language : Chinese

  116. Default : No

  117. Forced : No

  118. Text #5

  119. ID : 7

  120. ID in the original source medium : 4608 (0x1200)

  121. Format : PGS

  122. Muxing mode : zlib

  123. Codec ID : S_HDMV/PGS

  124. Codec ID/Info : Picture based subtitle format used on BDs/HD-DVDs

  125. Duration : 1 h 43 min

  126. Bit rate : 31.6 kb/s

  127. Count of elements : 3246

  128. Stream size : 23.5 MiB (0%)

  129. Language : English

  130. Default : No

  131. Forced : No

  132. Original source medium : Blu-ray

  133. Menu

  134. 00:00:00.000 : en:第 01 章

  135. 00:08:49.750 : en:第 02 章

  136. 00:19:26.625 : en:第 03 章

  137. 00:27:56.916 : en:第 04 章

  138. 00:37:13.708 : en:第 05 章

  139. 00:46:35.750 : en:第 06 章

  140. 00:56:19.458 : en:第 07 章

  141. 01:05:26.416 : en:第 08 章

  142. 01:14:39.750 : en:第 09 章

  143. 01:21:09.500 : en:第 10 章

  144. 01:32:48.458 : en:第 11 章

  145. 01:42:26.958 : en:第 12 章


TAGS 剧情 音乐 /

磁力链:
  • magnet:?xt=urn:btih:F54E2C577F5A8B0DD80C9C7B4C6552BB248C08EF
上传的附件:
BT9527电影天堂 1、BT9527电影天堂提供的BT文件均来源于互联网抓取,只供网友学习交流、技术提升使用。
2、我们遵守BitTorrent点对点协议原则,任何版权问题请联系原资源发布商,我们不处理任何版权纠纷,谢谢!如有争议请联系邮箱:BT9527#hotmail.com(#换成@)
3、如果您发现某页面或地址有错误,请联系站长邮箱BT9527#hotmail.com(#换成@),我们会尽快处理。您的热心是对BT9527电影天堂最大的支持。
4、本站建议去正规影院观看电影以支持电影行业发展。
最新回复 (0)

你可以在 登录 or 注册 后,对此帖发表评论!

返回
发新帖